***Уважаемые пользователи и гости !!! Сайт переехал на новый домен Torrents-club.info. Просьба изменить ваши закладки! ***
 
[ Сегодня идет свободное скачивание без начисления Download ]


Статистика раздачи
Нет
 
   
 
 
 
 
Моана / Moana
«The ocean is calling»
Год выпуска: 2016
Страна: США
Производство: Walt Disney Animation Studios, Walt Disney Pictures
Жанр: Мультфильм, мюзикл, фэнтези, комедия, приключения, семейный
Режиссёр: Рон Клементс, Дон Холл, Джон Маскер
В ролях: Аулии Кравалхо, Дуэйн Джонсон, Рэйчел Хаус, Темуэра Моррисон, Джемейн Клемент, Николь Шерзингер, Алан Тьюдик, Оскар Кайтли, Трой Поламалу, Пуанани Кравальо
Перевод: Профессиональный (полное дублирование) [Чистый звук]
Субтитры: Нет
Описание: Бесстрашная Моана, дочь вождя маленького племени на острове в Тихом океане, больше всего на свете мечтает о приключениях и решает отправиться в опасное морское путешествие. Вместе с некогда могущественным полубогом Мауи им предстоит пересечь океан, сразиться со страшными чудовищами и разрушить древнее заклятие.

Доп. информация: Релиз с рекламой!
Качество: HDRip
Продолжительность: 01:48:05
Формат: AVI
Видео кодек: XviD
Аудио кодек: AС3
Видео: 720x304 (2.35:1), 23.976 fps, XviD ~ 1352 kbps avg, 0.258 bit/pixel
Аудио: AC3, 48 kHz, 2 ch, ~ 448.00 kbps avg
Дата премьеры (мир): 14 ноября 2016
Дата премьеры (РФ): 1 декабря 2016

MI

General
Complete name                  :Moana.2016.D.HDRip.14OOMB_KOSHARA.avi
Format                         : AVI
Format/Info                    : Audio Video Interleave
File size                      : 1.37 GiB
Duration                       : 1h 48mn
Overall bit rate               : 1 810 Kbps
Writing application            : VirtualDubMod 1.5.10.2 (build 2540/release)
Writing library                : VirtualDubMod build 2540/release
Video
ID                             : 0
Format                         : MPEG-4 Visual
Format profile                 : Advanced Simple@L5
Format settings, BVOP          : 2
Format settings, QPel          : No
Format settings, GMC           : No warppoints
Format settings, Matrix        : Default (MPEG)
Codec ID                       : XVID
Codec ID/Hint                  : XviD
Duration                       : 1h 48mn
Bit rate                       : 1 352 Kbps
Width                          : 720 pixels
Height                         : 304 pixels
Display aspect ratio           : 2.35:1
Frame rate                     : 23.976 (24000/1001) fps
Color space                    : YUV
Chroma subsampling             : 4:2:0
Bit depth                      : 8 bits
Scan type                      : Progressive
Compression mode               : Lossy
Bits/(Pixel*Frame)             : 0.258
Stream size                    : 1.02 GiB (75%)
Writing library                : XviD 1.2.1 (UTC 2008-12-04)
Audio
ID                             : 1
Format                         : AC-3
Format/Info                    : Audio Coding 3
Mode extension                 : CM (complete main)
Format settings, Endianness    : Big
Codec ID                       : 2000
Duration                       : 1h 48mn
Bit rate mode                  : Constant
Bit rate                       : 448 Kbps
Channel(s)                     : 2 channels
Channel positions              : Front: L R
Sampling rate                  : 48.0 KHz
Frame rate                     : 31.250 fps (1536 spf)
Compression mode               : Lossy
Stream size                    : 346 MiB (25%)
Alignment                      : Split accross interleaves
Interleave, duration           : 42 ms (1.00 video frame)
Interleave, preload duration   : 500 ms
Скриншоты:


Последний раз редактировалось: Mi1o (2017-02-17 22:16), всего редактировалось 1 раз

[Цитировать]

в каком месте чистый звук
сплошная реклама
картинки не фига видно
все размыто
вот и качай

[Цитировать]

А когда будет доступен к скачиванию?

[Цитировать]

Торрент файл перезалит: Качество HDRip

[Цитировать]



Показать сообщения:    

Текущее время: 12-Май 01:32

Часовой пояс: UTC + 6


Вы не можете начинать темы
Вы не можете отвечать на сообщения
Вы не можете редактировать свои сообщения
Вы не можете удалять свои сообщения
Вы не можете голосовать в опросах
Вы не можете прикреплять файлы к сообщениям
Вы не можете скачивать файлы

!ВНИМАНИЕ!
Сайт не предоставляет электронные версии произведений, а занимается лишь коллекционированием и каталогизацией ссылок, присылаемых и публикуемых на форуме нашими читателями. Если вы являетесь правообладателем какого-либо представленного материала и не желаете, чтобы ссылка на него находилась в нашем каталоге, свяжитесь с нами, и мы незамедлительно удалим ее. Файлы для обмена на трекере предоставлены пользователями сайта, и администрация не несет ответственности за их содержание. Просьба не заливать файлы, защищенные авторскими правами, а также файлы нелегального содержания!