***Уважаемые пользователи и гости !!! Сайт переехал на новый домен Torrents-club.info. Просьба изменить ваши закладки! ***
 
[ Сегодня идет свободное скачивание без начисления Download ]


Статистика раздачи
Скачал: [ 1 ]
 
   
 
 
 
 
Рождественская сказка Маппетов (Рождественский гимн Маппет-шоу) / The Muppet Christmas Carol (1992) [4K, HEVC, HDR / WEB-DL] (2160p)
Год выпуска
: 1992
Жанр: Фэнтези, комедия, семейный, музыка, экранизация
Выпущено: США, Великобритания, Jim Henson Company, The, Jim Henson Productions, Walt Disney Pictures
Режиссер: Брайан Хенсон
Продолжительность: 01:25:57
Перевод: Профессиональный многоголосый
Субтитры: Русские, английские

В ролях:
Майкл Кейн, Дэйв Гольц, Стив Уитмир, Джерри Нельсон, Фрэнк Оз, Дэвид Рудман, Луиз Голд, Майк Куинн, Роберт Тигнер

О фильме
: Экранизация повести Чарльза Диккенса "Рождественская песнь в прозе: святочный рассказ с привидениями". Знаменитая история о скупом и черством Эбенизере Скрудже. Но здесь почти все роли играют знаменитые персонажи Маппет-шоу. Однажды рождественской ночью дядюшке Скруджу являются Дух Прошлых Лет, Дух Нынешних Святок и Дух Будущих Святок, которые заставляют его по-другому взглянуть на свою жизнь.
Техданные
Качество: WEB-DL (2160p)
Видео: HEVC, 26.9 Mбит/с, 3840x2076, 23.976 Кадр/с, 10 Бит
Аудио: Русский (DTS, 6 ch, 1509 бит/с), (AC3, 6 ch, 448 бит/с), английский (DTS, 6 ch, 1509 бит/с)

Релиз

Мастер 5
Видеоряд от TrollUHD
Формат: Main 10@L5.1@High_x265_HDR10
Цветовой праймериз: BT.2020
Характеристики передачи: PQ
Матричные коэффициенты: BT.2020
Аудио: Russian: 48 kHz, DTS, 3/2 (L,C,R,l,r) + LFE ch, 1509 kbps avg |Многоголосый закадровый, BBC Spb|
Аудио: Russian: 48 kHz, AC3, 3/2 (L,R) ch, 448.00 kbps avg |Многоголосый закадровый, BBC Saint-Petersburg|
Аудио: English: 48 kHz, DTS, 3/2 (L,C,R,l,r) + LFE ch, 1509 kbps avg |Original|
Субтитры: Русские, английские

MediaInfo:

Общее
Уникальный идентификатор                 : 238081051676975067606348560662597554924 (0xB31CBE1F11E545EE8C8780B47E6552EC)
Полное имя                               : G:\The.Muppet.Christmas.Carol.1992.2160p.WEB-DL.x265.10bit.HDR.Master5.mkv
Формат                                   : Matroska
Версия формата                           : Version 4
Размер файла                             : 18,2 Гбайт
Продолжительность                        : 1 ч. 25 м.
Общий поток                              : 30,4 Мбит/сек
Название фильма                          : The.Muppet.Christmas.Carol.1992.2160p.WEB-DL.x265.10bit.HDR.Master5
Дата кодирования                         : UTC 2019-12-11 16:09:27
Программа кодирования                    : mkvmerge v7.9.0 ('Birds') 64bit
Библиотека кодирования                   : libebml v1.3.1 + libmatroska v1.4.2
Видео
Идентификатор                            : 1
Формат                                   : HEVC
Формат/Информация                        : High Efficiency Video Coding
Профиль формата                          : Main 10@L5.1@High
Идентификатор кодека                     : V_MPEGH/ISO/HEVC
Продолжительность                        : 1 ч. 25 м.
Битрейт                                  : 26,9 Мбит/сек
Ширина                                   : 3840 пикселей
Высота                                   : 2076 пикселей
Соотношение сторон                       : 1,85:1
Режим частоты кадров                     : Постоянный
Частота кадров                           : 23,976 (24000/1001) кадра/сек
Цветовое пространство                    : YUV
Субдискретизация насыщенности            : 4:2:0
Битовая глубина                          : 10 бит
Бит/(Пиксели*Кадры)                      : 0.141
Размер потока                            : 16,1 Гбайт (89%)
Заголовок                                : The.Muppet.Christmas.Carol.1992.2160p.WEB-DL.x265.10bit.HDR.Master5
Библиотека кодирования                   : x265 3.2+9-971180b100f8:[Windows][MSVC 1923][64 bit] 10bit
Настройки программы                      : cpuid=1111039 / frame-threads=4 / numa-pools=0,28 / wpp / no-pmode / no-pme / no-psnr / no-ssim / log-level=2 / input-csp=1 / input-res=3840x2076 / interlace=0 / total-frames=0 / level-idc=51 / high-tier=1 / uhd-bd=0 / ref=5 / no-allow-non-conformance / repeat-headers / annexb / no-aud / no-hrd / info / hash=0 / no-temporal-layers / open-gop / min-keyint=23 / keyint=250 / gop-lookahead=0 / bframes=8 / b-adapt=2 / b-pyramid / bframe-bias=0 / rc-lookahead=40 / lookahead-slices=0 / scenecut=40 / radl=0 / no-splice / no-intra-refresh / ctu=64 / min-cu-size=8 / no-rect / no-amp / max-tu-size=32 / tu-inter-depth=3 / tu-intra-depth=3 / limit-tu=0 / rdoq-level=1 / dynamic-rd=0.00 / no-ssim-rd / signhide / no-tskip / nr-intra=0 / nr-inter=0 / no-constrained-intra / strong-intra-smoothing / max-merge=5 / limit-refs=0 / no-limit-modes / me=3 / subme=4 / merange=57 / temporal-mvp / no-frame-dup / no-hme / weightp / weightb / no-analyze-src-pics / deblock=0:0 / no-sao / no-sao-non-deblock / rd=6 / selective-sao=0 / no-early-skip / rskip / no-fast-intra / no-tskip-fast / no-cu-lossless / b-intra / no-splitrd-skip / rdpenalty=0 / psy-rd=4.00 / psy-rdoq=8.00 / no-rd-refine / no-lossless / cbqpoffs=0 / crqpoffs=0 / rc=crf / crf=17.0 / qcomp=0.60 / qpstep=4 / stats-write=0 / stats-read=0 / vbv-maxrate=160000 / vbv-bufsize=160000 / vbv-init=0.9 / crf-max=0.0 / crf-min=0.0 / ipratio=1.40 / pbratio=1.30 / aq-mode=2 / aq-strength=1.00 / cutree / zone-count=0 / no-strict-cbr / qg-size=32 / no-rc-grain / qpmax=69 / qpmin=0 / no-const-vbv / sar=0 / overscan=0 / videoformat=5 / range=0 / colorprim=9 / transfer=16 / colormatrix=9 / chromaloc=0 / display-window=0 / cll=0,0 / min-luma=0 / max-luma=1023 / log2-max-poc-lsb=8 / vui-timing-info / vui-hrd-info / slices=1 / no-opt-qp-pps / no-opt-ref-list-length-pps / no-multi-pass-opt-rps / scenecut-bias=0.05 / no-opt-cu-delta-qp / no-aq-motion / hdr / hdr-opt / no-dhdr10-opt / no-idr-recovery-sei / analysis-reuse-level=5 / scale-factor=0 / refine-intra=0 / refine-inter=0 / refine-mv=1 / refine-ctu-distortion=0 / no-limit-sao / ctu-info=0 / no-lowpass-dct / refine-analysis-type=0 / copy-pic=1 / max-ausize-factor=1.0 / no-dynamic-refine / no-single-sei / no-hevc-aq / no-svt / no-field / qp-adaptation-range=1.00
Default                                  : Да
Forced                                   : Нет
Цветовой диапазон                        : Limited
Основные цвета                           : BT.2020
Характеристики трансфера                 : PQ
Коэффициенты матрицы                     : BT.2020 non-constant
Аудио #1
Идентификатор                            : 2
Формат                                   : DTS
Формат/Информация                        : Digital Theater Systems
Идентификатор кодека                     : A_DTS
Продолжительность                        : 1 ч. 25 м.
Вид битрейта                             : Постоянный
Битрейт                                  : 1509 Кбит/сек
Каналы                                   : 6 каналов
Channel layout                           : C L R Ls Rs LFE
Частота                                  : 48,0 КГц
Частота кадров                           : 93,750 кадра/сек (512 SPF)
Битовая глубина                          : 24 бит
Метод сжатия                             : С потерями
Размер потока                            : 928 Мбайт (5%)
Заголовок                                : MVO . BBC Spb
Язык                                     : Russian
Default                                  : Да
Forced                                   : Да
Аудио #2
Идентификатор                            : 3
Формат                                   : AC-3
Формат/Информация                        : Audio Coding 3
Коммерческое название                    : Dolby Digital
Идентификатор кодека                     : A_AC3
Продолжительность                        : 1 ч. 25 м.
Вид битрейта                             : Постоянный
Битрейт                                  : 448 Кбит/сек
Каналы                                   : 6 каналов
Channel layout                           : L R C LFE Ls Rs
Частота                                  : 48,0 КГц
Частота кадров                           : 31,250 кадров/сек (1536 SPF)
Битовая глубина                          : 16 бит
Метод сжатия                             : С потерями
Размер потока                            : 275 Мбайт (1%)
Заголовок                                : MVO . BBC Spb
Язык                                     : Russian
ServiceKind/String                       : Complete Main
Default                                  : Нет
Forced                                   : Нет
Аудио #3
Идентификатор                            : 4
Формат                                   : DTS
Формат/Информация                        : Digital Theater Systems
Идентификатор кодека                     : A_DTS
Продолжительность                        : 1 ч. 25 м.
Вид битрейта                             : Постоянный
Битрейт                                  : 1509 Кбит/сек
Каналы                                   : 6 каналов
Channel layout                           : C L R Ls Rs LFE
Частота                                  : 48,0 КГц
Частота кадров                           : 93,750 кадра/сек (512 SPF)
Битовая глубина                          : 24 бит
Метод сжатия                             : С потерями
Размер потока                            : 928 Мбайт (5%)
Язык                                     : English
Default                                  : Нет
Forced                                   : Нет
Текст #1
Идентификатор                            : 5
Формат                                   : UTF-8
Идентификатор кодека                     : S_TEXT/UTF8
Идентификатор кодека/Информация          : UTF-8 Plain Text
Продолжительность                        : 1 ч. 22 м.
Битрейт                                  : 108 бит/сек
ElementCount                             : 1166
Размер потока                            : 66,1 Кбайт (0%)
Язык                                     : Russian
Default                                  : Нет
Forced                                   : Да
Текст #2
Идентификатор                            : 6
Формат                                   : UTF-8
Идентификатор кодека                     : S_TEXT/UTF8
Идентификатор кодека/Информация          : UTF-8 Plain Text
Продолжительность                        : 1 ч. 21 м.
Битрейт                                  : 75 бит/сек
ElementCount                             : 1363
Размер потока                            : 44,6 Кбайт (0%)
Язык                                     : English
Default                                  : Нет
Forced                                   : Нет
Меню
00:00:00.000                             : en:Opening Credits/Christmas Eve
00:15:21.629                             : en:"One More Sleep Till Christmas"
00:20:28.477                             : en:"Marley and Marley"
00:29:31.228                             : en:The Ghost of Christmas Past
00:43:53.422                             : en:A Sad Goodbye
00:45:29.310                             : en:The Ghost of Christmas Present
00:48:07.176                             : en:"It Feels Like Christmas"
00:53:36.296                             : en:Christmas at the Cratchits'
01:02:23.114                             : en:The Ghost of Christmas Yet to Come
01:11:43.841                             : en:A New Man/End Credits

Скриншоты

[Цитировать]



Показать сообщения:    

Текущее время: 22-Фев 22:08

Часовой пояс: UTC + 6


Вы не можете начинать темы
Вы не можете отвечать на сообщения
Вы не можете редактировать свои сообщения
Вы не можете удалять свои сообщения
Вы не можете голосовать в опросах
Вы не можете прикреплять файлы к сообщениям
Вы не можете скачивать файлы

!ВНИМАНИЕ!
Сайт не предоставляет электронные версии произведений, а занимается лишь коллекционированием и каталогизацией ссылок, присылаемых и публикуемых на форуме нашими читателями. Если вы являетесь правообладателем какого-либо представленного материала и не желаете, чтобы ссылка на него находилась в нашем каталоге, свяжитесь с нами, и мы незамедлительно удалим ее. Файлы для обмена на трекере предоставлены пользователями сайта, и администрация не несет ответственности за их содержание. Просьба не заливать файлы, защищенные авторскими правами, а также файлы нелегального содержания!