***Уважаемые пользователи и гости !!! Сайт переехал на новый домен Torrents-club.info. Просьба изменить ваши закладки! ***
 
[ Сегодня идет свободное скачивание без начисления Download ]


Статистика раздачи
Скачал: [ 2 ]
 
   
 
 
 
 
Капитан Марвел 2 (Марвелы) / The Marvels (2023) [4K, HEVC, HDR10+ / WEB-DL] (2160p) Год выпуска: 2023
Жанр: Фантастика, фэнтези, боевик, приключения, комикс, супергерой
Выпущено: США, Marvel Studios
Режиссер: Ниа ДаКоста
Продолжительность: 01:44:38
Перевод: Дублированный
Субтитры: Русские, английские, украинские
В ролях: Бри Ларсон, Тейона Паррис, Иман Веллани, Сэмюэл Л. Джексон, Зави Эштон, Гэри Льюис, Со Чжун Пак, Зенобия Шрофф, Мохан Капур, Саагар Шайх

О фильме
: Кэрол Дэнверс обретает свою отнятую тиранами Крии личность и мстит Высшему Разуму. Это приводят к тому, что Кэрол взваливает на свои плечи бремя дестабилизированной Вселенной. Когда она проходит через червоточину, которая должна вывести её на революционера из числа Крии, её силы переплетаются со способностями Камалы Хан, известной как Мисс Марвел, а также с племянницей Моникой Рамбо. Девушкам придётся научиться работать в команде, чтобы спасти Вселенную.
Капитан Марвел 2, 2023
Техданные
Качество: WEB-DL (2160p)
Видео: MPEG-H HEVC, 23.9 Мбит/с, 3840x1608, 24 кадр/с, 10 бит
Аудио: Русский (AC3, 6 ch, 448 Кбит/с), украинский (AC3, 6 ch, 384 Кбит/с), английский (E-АС3+Atmos, 6 ch, 768 Кбит/с)

Релиз

Звук :
Аудио 1: AC3, 6 ch, 448 Кбит/с - Русский дубляж (MovieDalen) - неофициальный
Аудио 2: AC3, 6 ch, 384 Кбит/с - Украинский дубляж (Le Doyen)
Аудио 3: E-АС3+Atmos, 6 ch, 768 Кбит/с - Английский
Субтитры: Русские (Forced, Full), украинские (Forced, Full), английские (Forced, Full, SDH)

MediaInfo:

Уникальный идентификатор                 : 192336382186961891643322852657585610491 (0x90B2A3C8F16C60D0AE9BF6A8CA3A5EFB)
Полное имя                               : R:\The.Marvels.2023.x265.WEB-DL.2160p.HDR10Plus.mkv
Формат                                   : Matroska
Версия формата                           : Version 4
Размер файла                             : 18,7 Гбайт
Продолжительность                        : 1 ч. 44 м.
Общий поток                              : 25,5 Мбит/сек
Дата кодирования                         : UTC 2024-01-16 11:42:59
Программа кодирования                    : mkvmerge v82.0 ('I'm The President') 64-bit
Библиотека кодирования                   : libebml v1.4.5 + libmatroska v1.7.1
Видео
Идентификатор                            : 1
Формат                                   : HEVC
Формат/Информация                        : High Efficiency Video Coding
Профиль формата                          : Main 10@L5@High
HDR format                               : SMPTE ST 2094 App 4, Version 1, HDR10+ Profile A compatible
Идентификатор кодека                     : V_MPEGH/ISO/HEVC
Продолжительность                        : 1 ч. 44 м.
Битрейт                                  : 23,9 Мбит/сек
Ширина                                   : 3 840 пикселей
Высота                                   : 1 608 пикселей
Соотношение сторон                       : 2,40:1
Режим частоты кадров                     : Постоянный
Частота кадров                           : 24,000 кадра/сек
Цветовое пространство                    : YUV
Субдискретизация насыщенности            : 4:2:0 (Type 2)
Битовая глубина                          : 10 бит
Бит/(Пиксели*Кадры)                      : 0.161
Размер потока                            : 17,5 Гбайт (94%)
Язык                                     : English
Default                                  : Да
Forced                                   : Да
Цветовой диапазон                        : Limited
Основные цвета                           : BT.2020
Характеристики трансфера                 : PQ
Коэффициенты матрицы                     : BT.2020 non-constant
Mastering display color primaries        : BT.2020
Mastering display luminance              : min: 0.0050 cd/m2, max: 1000 cd/m2
Maximum Content Light Level              : 1728 cd/m2
Maximum Frame-Average Light Level        : 727 cd/m2
Аудио #1
Идентификатор                            : 2
Формат                                   : AC-3
Формат/Информация                        : Audio Coding 3
Коммерческое название                    : Dolby Digital
Идентификатор кодека                     : A_AC3
Продолжительность                        : 1 ч. 44 м.
Вид битрейта                             : Постоянный
Битрейт                                  : 448 Кбит/сек
Каналы                                   : 6 каналов
Channel layout                           : L R C LFE Ls Rs
Частота                                  : 48,0 КГц
Частота кадров                           : 31,250 кадров/сек (1536 SPF)
Метод сжатия                             : С потерями
Размер потока                            : 335 Мбайт (2%)
Заголовок                                : DUB (MovieDalen)
Язык                                     : Russian
Service kind                             : Complete Main
Default                                  : Да
Forced                                   : Да
Аудио #2
Идентификатор                            : 3
Формат                                   : AC-3
Формат/Информация                        : Audio Coding 3
Коммерческое название                    : Dolby Digital
Идентификатор кодека                     : A_AC3
Продолжительность                        : 1 ч. 44 м.
Вид битрейта                             : Постоянный
Битрейт                                  : 384 Кбит/сек
Каналы                                   : 6 каналов
Channel layout                           : L R C LFE Ls Rs
Частота                                  : 48,0 КГц
Частота кадров                           : 31,250 кадров/сек (1536 SPF)
Метод сжатия                             : С потерями
Размер потока                            : 287 Мбайт (2%)
Заголовок                                : DUB (Le Doyen)
Язык                                     : Ukrainian
Service kind                             : Complete Main
Default                                  : Нет
Forced                                   : Нет
Аудио #3
Идентификатор                            : 4
Формат                                   : E-AC-3 JOC
Формат/Информация                        : Enhanced AC-3 with Joint Object Coding
Коммерческое название                    : Dolby Digital Plus with Dolby Atmos
Идентификатор кодека                     : A_EAC3
Продолжительность                        : 1 ч. 44 м.
Вид битрейта                             : Постоянный
Битрейт                                  : 768 Кбит/сек
Каналы                                   : 6 каналов
Channel layout                           : L R C LFE Ls Rs
Частота                                  : 48,0 КГц
Частота кадров                           : 31,250 кадров/сек (1536 SPF)
Метод сжатия                             : С потерями
Размер потока                            : 575 Мбайт (3%)
Язык                                     : English
Service kind                             : Complete Main
Default                                  : Нет
Forced                                   : Нет
Complexity index                         : 16
Number of dynamic objects                : 15
Bed channel count                        : 1 канал
Bed channel configuration                : LFE
Текст #1
Идентификатор                            : 5
Формат                                   : UTF-8
Идентификатор кодека                     : S_TEXT/UTF8
Идентификатор кодека/Информация          : UTF-8 Plain Text
Продолжительность                        : 1 ч. 33 м.
Битрейт                                  : 1 бит/сек
Частота кадров                           : 0,004 кадр/сек
Count of elements                        : 22
Размер потока                            : 839 байт (0%)
Заголовок                                : Forced
Язык                                     : Russian
Default                                  : Да
Forced                                   : Да
Текст #2
Идентификатор                            : 6
Формат                                   : UTF-8
Идентификатор кодека                     : S_TEXT/UTF8
Идентификатор кодека/Информация          : UTF-8 Plain Text
Продолжительность                        : 1 ч. 42 м.
Битрейт                                  : 76 бит/сек
Частота кадров                           : 0,200 кадр/сек
Count of elements                        : 1226
Размер потока                            : 56,9 Кбайт (0%)
Заголовок                                : Full
Язык                                     : Russian
Default                                  : Нет
Forced                                   : Нет
Текст #3
Идентификатор                            : 7
Формат                                   : UTF-8
Идентификатор кодека                     : S_TEXT/UTF8
Идентификатор кодека/Информация          : UTF-8 Plain Text
Продолжительность                        : 1 ч. 33 м.
Битрейт                                  : 1 бит/сек
Частота кадров                           : 0,004 кадр/сек
Count of elements                        : 20
Размер потока                            : 802 байт (0%)
Заголовок                                : Forced
Язык                                     : Ukrainian
Default                                  : Нет
Forced                                   : Нет
Текст #4
Идентификатор                            : 8
Формат                                   : UTF-8
Идентификатор кодека                     : S_TEXT/UTF8
Идентификатор кодека/Информация          : UTF-8 Plain Text
Продолжительность                        : 1 ч. 42 м.
Битрейт                                  : 81 бит/сек
Частота кадров                           : 0,200 кадр/сек
Count of elements                        : 1227
Размер потока                            : 60,7 Кбайт (0%)
Заголовок                                : Full
Язык                                     : Ukrainian
Default                                  : Нет
Forced                                   : Нет
Текст #5
Идентификатор                            : 9
Формат                                   : UTF-8
Идентификатор кодека                     : S_TEXT/UTF8
Идентификатор кодека/Информация          : UTF-8 Plain Text
Продолжительность                        : 1 м. 29 с.
Битрейт                                  : 4 бит/сек
Частота кадров                           : 0,022 кадр/сек
Count of elements                        : 2
Размер потока                            : 52,0 байт (0%)
Заголовок                                : Forced
Язык                                     : English
Default                                  : Нет
Forced                                   : Нет
Текст #6
Идентификатор                            : 10
Формат                                   : UTF-8
Идентификатор кодека                     : S_TEXT/UTF8
Идентификатор кодека/Информация          : UTF-8 Plain Text
Продолжительность                        : 1 ч. 35 м.
Битрейт                                  : 52 бит/сек
Частота кадров                           : 0,211 кадр/сек
Count of elements                        : 1207
Размер потока                            : 36,8 Кбайт (0%)
Заголовок                                : Full
Язык                                     : English
Default                                  : Нет
Forced                                   : Нет
Текст #7
Идентификатор                            : 11
Формат                                   : UTF-8
Идентификатор кодека                     : S_TEXT/UTF8
Идентификатор кодека/Информация          : UTF-8 Plain Text
Продолжительность                        : 1 ч. 44 м.
Битрейт                                  : 66 бит/сек
Частота кадров                           : 0,286 кадр/сек
Count of elements                        : 1791
Размер потока                            : 50,7 Кбайт (0%)
Заголовок                                : SDH
Язык                                     : English
Default                                  : Нет
Forced                                   : Нет
Меню
00:00:00.000                             : en:Chapter 01
00:04:20.969                             : en:Chapter 02
00:07:03.006                             : en:Chapter 03
00:11:09.711                             : en:Chapter 04
00:14:14.270                             : en:Chapter 05
00:21:09.019                             : en:Chapter 06
00:27:19.889                             : en:Chapter 07
00:29:42.741                             : en:Chapter 08
00:33:25.505                             : en:Chapter 09
00:38:08.079                             : en:Chapter 10
00:43:50.255                             : en:Chapter 11
00:48:06.136                             : en:Chapter 12
00:50:26.818                             : en:Chapter 13
00:52:31.026                             : en:Chapter 14
00:58:52.073                             : en:Chapter 15
01:05:07.699                             : en:Chapter 16
01:09:47.687                             : en:Chapter 17
01:17:14.551                             : en:Chapter 18
01:23:57.037                             : en:Chapter 19
01:27:25.036                             : en:Chapter 20
01:29:50.015                             : en:Chapter 21
01:32:04.107                             : en:Chapter 22
01:33:12.133                             : en:Chapter 23
01:35:53.837                             : en:Chapter 24
01:37:35.188                             : en:Chapter 25

Скриншоты

MAGNET

Открой меня

magnet:?xt=urn:btih:FC0895535CB83BCEE7D478C7226D7F12142270CA&dn=The.Marvels.2023.x265.WEB-DL.2160p.HDR10Plus.mkv&tr=http%3a%2f%2ftr1.tor4me.info%2fann%3fuk%3dF5E20kt2HF&tr=http%3a%2f%2ftr1.tor2me.info%2fann%3fuk%3dF5E20kt2HF&tr=http%3a%2f%2ftr1.torrent4me.com%2fann%3fuk%3dF5E20kt2HF&tr=http%3a%2f%2fretracker.local%2fannounce&tr=wss%3a%2f%2fwstracker.online&tr=http%3a%2f%2fxbt.setitagila.ru%3a2710%2fannounce

[Цитировать]



Показать сообщения:    

Текущее время: 14-Июл 11:36

Часовой пояс: UTC + 6


Вы не можете начинать темы
Вы не можете отвечать на сообщения
Вы не можете редактировать свои сообщения
Вы не можете удалять свои сообщения
Вы не можете голосовать в опросах
Вы не можете прикреплять файлы к сообщениям
Вы не можете скачивать файлы

!ВНИМАНИЕ!
Сайт не предоставляет электронные версии произведений, а занимается лишь коллекционированием и каталогизацией ссылок, присылаемых и публикуемых на форуме нашими читателями. Если вы являетесь правообладателем какого-либо представленного материала и не желаете, чтобы ссылка на него находилась в нашем каталоге, свяжитесь с нами, и мы незамедлительно удалим ее. Файлы для обмена на трекере предоставлены пользователями сайта, и администрация не несет ответственности за их содержание. Просьба не заливать файлы, защищенные авторскими правами, а также файлы нелегального содержания!