***Уважаемые пользователи и гости !!! Сайт переехал на новый домен Torrents-club.info. Просьба изменить ваши закладки! ***
 
[ Сегодня идет свободное скачивание без начисления Download ]


Статистика раздачи
Скачал: [ 2 ]
 
   
 
 
 
 
Рэмбо: Первая кровь / First blood (1982) [4K, HEVC, SDR / WEB-DL] (2160p) Год выпуска: 1982
Жанр: Боевик, триллер, драма, приключения, экранизация
Выпущено: США, Anabasis N.V., Elcajo Productions
Режиссер: Тед Котчефф
Продолжительность: 01:29:18
Перевод: Профессиональный многоголосый, профессиональный двухголосый
Субтитры: Русские, английские
возраст 16+
В ролях: Сильвестр Сталлоне, Ричард Кренна, Брайан Деннехи, Билл МакКинни, Джек Старретт, Майкл Толбот, Крис Малки, Джон МакЛиам, Альф Хамфриз, Дэвид Карузо, Дэвид Л. Кроули, Дон Маккэй, Чарльз А. Тамбурро, Дэвид Петерсен, Крэйг Хьюстон, Патрик Стэк, Стивен Е. Миллер, Раймонд Стамм, Роберт Меткаф, Стефен Димопоулос, Брюс Гринвуд, Эрл Клейн, Дэнни Уозна, Питер Лонструп

О фильме:
Экранизация одноименного романа Дэвида Морелла. Бывший участник войны во Вьетнаме, отслуживший в отряде десантников, путешествует по Америке, пытаясь розыскать своих фронтовых друзей. Но поиски ветерана нагло прерывает провинциальный шериф Уилл Тизл. Воспользовавшись своими полномочиями и повесив на Рэмбо ложное обвинение, хранитель правопорядка заключает его в тюрьму. С этого момента Рэмбо объявляет войну, бросая вызов недостойному отношению к ветеранам, беспределу официальных структур и главе местной полиции лично..
Техданные
Качество: WEB-DL (2160p)
Видео: MPEG-H HEVC, 10 Mбит/с, 3840х1632, 8 бит
Аудио: Русский, английский (E-AC3, 6 ch, 448 Кбит/с)

Релиз

SOFCJ
Перевод 1: Профессиональный (многоголосый закадровый) Киномания
Перевод 2: Профессиональный (двухголосный закадровый) Кубик в Кубе
Оригинальная аудиодорожка: английская
Субтитры: русские (full), английские (full)
Качество видео: WEB-DL 2060p (SDR) [КиноПоиск]
Формат видео: MKV
Видео: HEVC, 3840х1632 (2.35:1), 8bit, 23.976 fps, ~ 10,0 Mbps
Аудио 1: Russian E-AC3 / 5.1 / 48 kHz / 448 kbps | MVO, Киномания |
Аудио 2: Russian E-AC3 / 5.1 / 48 kHz / 448 kbps | DVO, Кубик в Кубе |
Аудио 3: English E-AC3 / 5.1 / 48 kHz / 448 kbps | Original |
Формат субтитров: softsub [srt]

MediaInfo:

Complete name               : First.Blood.1982.WEB-DL.KP.SDR.2160p-SOFCJ.mkv
Format                      : Matroska
Format version              : Version 4
File size                   : 7.09 GiB
Duration                    : 1 h 29 min
Overall bit rate            : 11.4 Mb/s
Frame rate                  : 25.000 FPS
Movie name                  : First.Blood.1982.WEB-DL.KP.SDR.2160p-SOFCJ
Encoded date                : 2024-03-10 16:15:18 UTC
Writing application         : mkvmerge v43.0.0 ('The Quartermaster') 64-bit
Writing library             : libebml v1.3.10 + libmatroska v1.5.2
Cover                       : Yes
Attachments                 : cover.jpg
Video
ID                          : 1
Format                      : HEVC
Format/Info                 : High Efficiency Video Coding
Format profile              : Main@L5@High
Codec ID                    : V_MPEGH/ISO/HEVC
Duration                    : 1 h 29 min
Bit rate                    : 10.0 Mb/s
Width                       : 3 840 pixels
Height                      : 1 632 pixels
Display aspect ratio        : 2.35:1
Frame rate mode             : Constant
Frame rate                  : 25.000 FPS
Color space                 : YUV
Chroma subsampling          : 4:2:0 (Type 0)
Bit depth                   : 8 bits
Bits/(Pixel*Frame)          : 0.064
Stream size                 : 6.25 GiB (88%)
Title                       : [WEB-DL KP by SOFCJ]
Writing library             : x265 3.5:[Linux][clang 16.0.6][64 bit] 8bit+10bit
Encoding settings           : cpuid=1111039 / frame-threads=5 / wpp / no-pmode / no-pme / no-psnr / no-ssim / log-level=2 / input-csp=1 / input-res=3840x1632 / interlace=0 / total-frames=0 / level-idc=50 / high-tier=1 / uhd-bd=0 / ref=2 / no-allow-non-conformance / no-repeat-headers / annexb / no-aud / no-hrd / info / hash=0 / no-temporal-layers / open-gop / min-keyint=100 / keyint=100 / gop-lookahead=0 / bframes=4 / b-adapt=2 / b-pyramid / bframe-bias=0 / rc-lookahead=100 / lookahead-slices=4 / scenecut=40 / hist-scenecut=0 / radl=0 / no-splice / no-intra-refresh / ctu=64 / min-cu-size=8 / rect / no-amp / max-tu-size=32 / tu-inter-depth=1 / tu-intra-depth=1 / limit-tu=0 / rdoq-level=2 / dynamic-rd=0.00 / no-ssim-rd / signhide / no-tskip / nr-intra=0 / nr-inter=0 / no-constrained-intra / strong-intra-smoothing / max-merge=3 / limit-refs=3 / limit-modes / me=3 / subme=3 / merange=57 / temporal-mvp / no-frame-dup / no-hme / weightp / no-weightb / no-analyze-src-pics / deblock=0:0 / sao / no-sao-non-deblock / rd=4 / selective-sao=4 / no-early-skip / rskip / no-fast-intra / no-tskip-fast / no-cu-lossless / no-b-intra / no-splitrd-skip / rdpenalty=0 / psy-rd=2.00 / psy-rdoq=1.00 / no-rd-refine / no-lossless / cbqpoffs=0 / crqpoffs=0 / rc=crf / crf=16.0 / qcomp=0.60 / qpstep=4 / stats-write=0 / stats-read=0 / vbv-maxrate=100000 / vbv-bufsize=100000 / vbv-init=0.9 / min-vbv-fullness=50.0 / max-vbv-fullness=80.0 / crf-max=0.0 / crf-min=0.0 / ipratio=1.40 / pbratio=1.30 / aq-mode=2 / aq-strength=1.00 / cutree / zone-count=0 / no-strict-cbr / qg-size=32 / no-rc-grain / qpmax=69 / qpmin=0 / no-const-vbv / sar=1 / overscan=0 / videoformat=5 / range=0 / colorprim=1 / transfer=1 / colormatrix=1 / chromaloc=1 / chromaloc-top=0 / chromaloc-bottom=0 / display-window=0 / cll=0,0 / min-luma=0 / max-luma=255 / log2-max-poc-lsb=8 / vui-timing-info / vui-hrd-info / slices=1 / no-opt-qp-pps / no-opt-ref-list-length-pps / no-multi-pass-opt-rps / scenecut-bias=0.05 / hist-threshold=0.03 / no-opt-cu-delta-qp / no-aq-motion / no-hdr10 / no-hdr10-opt / no-dhdr10-opt / no-idr-recovery-sei / analysis-reuse-level=0 / analysis-save-reuse-level=0 / analysis-load-reuse-level=0 / scale-factor=0 / refine-intra=0 / refine-inter=0 / refine-mv=1 / refine-ctu-distortion=0 / no-limit-sao / ctu-info=0 / no-lowpass-dct / refine-analysis-type=0 / copy-pic=1 / max-ausize-factor=1.0 / no-dynamic-refine / no-single-sei / no-hevc-aq / no-svt / no-field / qp-adaptation-range=1.00 / scenecut-aware-qp=0conformance-window-offsets / right=0 / bottom=0 / decoder-max-rate=0 / no-vbv-live-multi-pass
Language                    : English
Default                     : Yes
Forced                      : No
Color range                 : Limited
Color primaries             : BT.709
Transfer characteristics    : BT.709
Matrix coefficients         : BT.709
Audio #1
ID                          : 2
Format                      : E-AC-3
Format/Info                 : Enhanced AC-3
Commercial name             : Dolby Digital Plus
Codec ID                    : A_EAC3
Duration                    : 1 h 29 min
Bit rate mode               : Constant
Bit rate                    : 448 kb/s
Channel(s)                  : 6 channels
Channel layout              : L R C LFE Ls Rs
Sampling rate               : 48.0 kHz
Frame rate                  : 31.250 FPS (1536 SPF)
Compression mode            : Lossy
Stream size                 : 286 MiB (4%)
Title                       : MVO [Киномания]
Language                    : Russian
Service kind                : Complete Main
Default                     : Yes
Forced                      : No
Audio #2
ID                          : 3
Format                      : E-AC-3
Format/Info                 : Enhanced AC-3
Commercial name             : Dolby Digital Plus
Codec ID                    : A_EAC3
Duration                    : 1 h 29 min
Bit rate mode               : Constant
Bit rate                    : 448 kb/s
Channel(s)                  : 6 channels
Channel layout              : L R C LFE Ls Rs
Sampling rate               : 48.0 kHz
Frame rate                  : 31.250 FPS (1536 SPF)
Compression mode            : Lossy
Stream size                 : 286 MiB (4%)
Title                       : DVO [Кубик в Кубе]
Language                    : Russian
Service kind                : Complete Main
Default                     : No
Forced                      : No
Audio #3
ID                          : 4
Format                      : E-AC-3
Format/Info                 : Enhanced AC-3
Commercial name             : Dolby Digital Plus
Codec ID                    : A_EAC3
Duration                    : 1 h 29 min
Bit rate mode               : Constant
Bit rate                    : 448 kb/s
Channel(s)                  : 6 channels
Channel layout              : L R C LFE Ls Rs
Sampling rate               : 48.0 kHz
Frame rate                  : 31.250 FPS (1536 SPF)
Compression mode            : Lossy
Stream size                 : 286 MiB (4%)
Language                    : English
Service kind                : Complete Main
Default                     : No
Forced                      : No
Text #1
ID                          : 5
Format                      : UTF-8
Codec ID                    : S_TEXT/UTF8
Codec ID/Info               : UTF-8 Plain Text
Duration                    : 1 h 24 min
Bit rate                    : 61 b/s
Frame rate                  : 0.164 FPS
Count of elements           : 832
Stream size                 : 38.0 KiB (0%)
Title                       : Full
Language                    : Russian
Default                     : No
Forced                      : No
Text #2
ID                          : 6
Format                      : UTF-8
Codec ID                    : S_TEXT/UTF8
Codec ID/Info               : UTF-8 Plain Text
Duration                    : 1 h 24 min
Bit rate                    : 51 b/s
Frame rate                  : 0.179 FPS
Count of elements           : 907
Stream size                 : 31.7 KiB (0%)
Title                       : Full
Language                    : English
Default                     : No
Forced                      : No

Скриншоты

MAGNET

Открой меня

magnet:?xt=urn:btih:339B04AEB6AFAB8F846C58DEF4885375F46B515B&dn=First.Blood.1982.WEB-DL.KP.SDR.2160p-SOFCJ.mkv&tr=http%3a%2f%2ftr4.tor2me.info%2fann%3fuk%3dF5E20kt2HF&tr=http%3a%2f%2ftr4.torrent4me.com%2fann%3fuk%3dF5E20kt2HF&tr=http%3a%2f%2ftr4.tor4me.info%2fann%3fuk%3dF5E20kt2HF&tr=http%3a%2f%2fretracker.local%2fannounce&tr=wss%3a%2f%2fwstracker.online&tr=http%3a%2f%2fxbt.setitagila.ru%3a2710%2fannounce

[Цитировать]



Показать сообщения:    

Текущее время: 14-Июл 10:51

Часовой пояс: UTC + 6


Вы не можете начинать темы
Вы не можете отвечать на сообщения
Вы не можете редактировать свои сообщения
Вы не можете удалять свои сообщения
Вы не можете голосовать в опросах
Вы не можете прикреплять файлы к сообщениям
Вы не можете скачивать файлы

!ВНИМАНИЕ!
Сайт не предоставляет электронные версии произведений, а занимается лишь коллекционированием и каталогизацией ссылок, присылаемых и публикуемых на форуме нашими читателями. Если вы являетесь правообладателем какого-либо представленного материала и не желаете, чтобы ссылка на него находилась в нашем каталоге, свяжитесь с нами, и мы незамедлительно удалим ее. Файлы для обмена на трекере предоставлены пользователями сайта, и администрация не несет ответственности за их содержание. Просьба не заливать файлы, защищенные авторскими правами, а также файлы нелегального содержания!