***Уважаемые пользователи и гости !!! Сайт переехал на новый домен Torrents-club.info. Просьба изменить ваши закладки! ***
 
[ Сегодня идет свободное скачивание без начисления Download ]


Статистика раздачи
Нет
 
   
 
 
 
 
Фантастические твари и где они обитают / Fantastic Beasts and Where to Find Them (2016) [HEVC, HDR, 4K / Blu-Ray Remux] (2160p)
Год выпуска
: 2016
Жанр: Фэнтези, приключения, семейный
Выпущено: Великобритания, США, Cinesite, Double Negative, Framestore
Режиссер: Дэвид Йейтс
Продолжительность: 02:12:53
Перевод: Дублированный
Субтитры: Русские, английские
возраст 12+

В ролях:
Эдди Редмэйн, Кэтрин Уотерстон, Дэн Фоглер, Элисон Судол, Колин Фаррелл, Кармен Эджого, Эзра Миллер, Саманта Мортон, Рон Перлман, Джон Войт, Доминик Типпер

О фильме
: 1926 год. Зоолог-волшебник Ньют Саламандер нелегально вывозит в чемодане редких магических зверей, чтобы переселить оставшихся особей в более подходящую среду обитания и, тем самым, сохранить их как вид. Но при очередном прохождении нью-йоркской таможни что-то идет не так и несколько опасных существ оказываются на воле. Саламандеру необходимо как можно быстрее упаковать разбежавшийся зверинец обратно в чемодан, ведь на его поиски уже выдвинулись местные волшебные власти. Дело осложняется назревающим конфликтом между магами и не-магами (американское название маглов), за которым стоит тайное общество анархистов-радикалов "Новый Салем". Его адепты вынашивают жуткий план по честному отъему волшебных палочек во всем мире.
Фантастические твари и где они обитают (2016) | Русский Трейлер #3 HD
Техданные
Качество: Blu-Ray Remux (2160p)
Видео: HEVC, 49.9 Мбит/с, 3840x2160
Аудио: Русский (AC3, 6 ch, 448 Кбит/с), английский (TrueHD, 8 ch, 3951 Кбит/с), (AC3, 6 ch, 448 Кбит/с)
Релиз
Озвучивание: Дублированное [Лицензия]
Субтитры: Русские (полные, форсированные), английские

MediaInfo:

General
Unique ID                   : 209982992561797764134521487986447795503 (0x9DF940D97E39BA7EB705F48833B2C52F)
Complete name               : G:\VideoSSD\Fantastic.Beasts.and.Where.to.Find.Them.2016.BDREMUX.2160p.4K.UltraHD.HEVC.HDR.ExKinoRay.mkv
Format                      : Matroska
Format version              : Version 4 / Version 2
File size                   : 50.9 GiB
Duration                    : 2 h 12 min
Overall bit rate mode       : Variable
Overall bit rate            : 54.8 Mb/s
Encoded date                : UTC 2017-10-20 21:18:57
Writing application         : mkvmerge v17.0.0 ('Be Ur Friend') 64-bit
Writing library             : libebml v1.3.5 + libmatroska v1.4.8
Video
ID                          : 1
Format                      : HEVC
Format/Info                 : High Efficiency Video Coding
Format profile              : Main 10@L5.1@High
Codec ID                    : V_MPEGH/ISO/HEVC
Duration                    : 2 h 12 min
Bit rate                    : 49.9 Mb/s
Width                       : 3 840 pixels
Height                      : 2 160 pixels
Display aspect ratio        : 16:9
Frame rate mode             : Constant
Frame rate                  : 23.976 (24000/1001) FPS
Color space                 : YUV
Chroma subsampling          : 4:2:0 (Type 2)
Bit depth                   : 10 bits
Bits/(Pixel*Frame)          : 0.251
Stream size                 : 46.3 GiB (91%)
Writing library             : ATEME Titan File 3.7.8 (4.7.8.0)
Language                    : English
Default                     : Yes
Forced                      : No
Color range                 : Limited
Color primaries             : BT.2020
Transfer characteristics    : PQ
Matrix coefficients         : BT.2020 non-constant
Mastering display color pri : R: x=0.680000 y=0.320000, G: x=0.265000 y=0.690000, B: x=0.150000 y=0.060000, White point: x=0.312700 y=0.329000
Mastering display luminance : min: 0.0050 cd/m2, max: 4000.0000 cd/m2
Maximum Content Light Level : 3173 cd/m2
Maximum Frame-Average Light : 484 cd/m2
Audio #1
ID                          : 2
Format                      : AC-3
Format/Info                 : Audio Coding 3
Format settings, Endianness : Big
Codec ID                    : A_AC3
Duration                    : 2 h 12 min
Bit rate mode               : Constant
Bit rate                    : 448 kb/s
Channel(s)                  : 6 channels
Channel positions           : Front: L C R, Side: L R, LFE
Sampling rate               : 48.0 kHz
Frame rate                  : 31.250 FPS (1536 SPF)
Bit depth                   : 16 bits
Compression mode            : Lossy
Stream size                 : 426 MiB (1%)
Title                       : Dub [Blu-ray CEE]
Language                    : Russian
Service kind                : Complete Main
Default                     : No
Forced                      : No
Audio #2
ID                          : 3
Format                      : TrueHD
Format profile              : TrueHD+Atmos / TrueHD
Codec ID                    : A_TRUEHD
Duration                    : 2 h 12 min
Bit rate mode               : Variable
Bit rate                    : 3 951 kb/s
Maximum bit rate            : 7 563 kb/s
Channel(s)                  : Object Based / 8 channels
Channel positions           : Object Based / Front: L C R, Side: L R, Back: L R, LFE
Sampling rate               :  / 48.0 kHz
Frame rate                  : 1 200.000 FPS (40 SPF)
Compression mode            : Lossless
Stream size                 : 3.67 GiB (7%)
Title                       : Original
Language                    : English
Default                     : No
Forced                      : No
Audio #3
ID                          : 4
Format                      : AC-3
Format/Info                 : Audio Coding 3
Format settings, Endianness : Big
Codec ID                    : A_AC3
Duration                    : 2 h 12 min
Bit rate mode               : Constant
Bit rate                    : 448 kb/s
Channel(s)                  : 6 channels
Channel positions           : Front: L C R, Side: L R, LFE
Sampling rate               : 48.0 kHz
Frame rate                  : 31.250 FPS (1536 SPF)
Bit depth                   : 16 bits
Compression mode            : Lossy
Stream size                 : 426 MiB (1%)
Language                    : English
Service kind                : Complete Main
Default                     : No
Forced                      : No
Text #1
ID                          : 5
Format                      : UTF-8
Codec ID                    : S_TEXT/UTF8
Codec ID/Info               : UTF-8 Plain Text
Duration                    : 2 h 2 min
Bit rate                    : 2 b/s
Count of elements           : 40
Stream size                 : 2.47 KiB (0%)
Title                       : Forced
Language                    : Russian
Default                     : Yes
Forced                      : No
Text #2
ID                          : 6
Format                      : UTF-8
Codec ID                    : S_TEXT/UTF8
Codec ID/Info               : UTF-8 Plain Text
Duration                    : 2 h 12 min
Bit rate                    : 65 b/s
Count of elements           : 1316
Stream size                 : 63.4 KiB (0%)
Title                       : Full
Language                    : Russian
Default                     : No
Forced                      : No
Text #3
ID                          : 7
Format                      : UTF-8
Codec ID                    : S_TEXT/UTF8
Codec ID/Info               : UTF-8 Plain Text
Duration                    : 2 h 11 min
Bit rate                    : 44 b/s
Count of elements           : 1599
Stream size                 : 43.1 KiB (0%)
Language                    : English
Default                     : No
Forced                      : No
Menu
00:00:00.000                : :00:00:00.000
00:08:40.270                : :00:08:40.270
00:18:55.718                : :00:18:55.718
00:28:23.660                : :00:28:23.660
00:38:34.187                : :00:38:34.187
00:48:08.594                : :00:48:08.594
00:58:19.246                : :00:58:19.246
01:09:14.692                : :01:09:14.692
01:17:26.392                : :01:17:26.392
01:29:33.660                : :01:29:33.660
01:38:02.085                : :01:38:02.085
01:50:27.871                : :01:50:27.871
01:59:04.471                : :01:59:04.471
02:04:11.944                : :02:04:11.944

Скриншоты

[Цитировать]



Показать сообщения:    

Текущее время: 14-Авг 05:19

Часовой пояс: UTC + 6


Вы не можете начинать темы
Вы не можете отвечать на сообщения
Вы не можете редактировать свои сообщения
Вы не можете удалять свои сообщения
Вы не можете голосовать в опросах
Вы не можете прикреплять файлы к сообщениям
Вы не можете скачивать файлы

!ВНИМАНИЕ!
Сайт не предоставляет электронные версии произведений, а занимается лишь коллекционированием и каталогизацией ссылок, присылаемых и публикуемых на форуме нашими читателями. Если вы являетесь правообладателем какого-либо представленного материала и не желаете, чтобы ссылка на него находилась в нашем каталоге, свяжитесь с нами, и мы незамедлительно удалим ее. Файлы для обмена на трекере предоставлены пользователями сайта, и администрация не несет ответственности за их содержание. Просьба не заливать файлы, защищенные авторскими правами, а также файлы нелегального содержания!