***Уважаемые пользователи и гости !!! Сайт переехал на новый домен Torrents-club.info. Просьба изменить ваши закладки! ***
 
[ Сегодня идет свободное скачивание без начисления Download ]


Статистика раздачи
Качаю: [ 1 ]
Скачал: [ 1 ]
 
   
 
 
 
 
Чёрный Адам / Black Adam (2022) [4K, HEVC, HDR10, Dolby Vision P8 / WEB-DL] (2160p) Год выпуска: 2022
Жанр: Фантастика, фэнтези, боевик, приключения
Выпущено: США, Канада, Новая Зеландия, Венгрия, Warner Bros., New Line Cinema, DC Entertainment
Режиссер: Жауме Коллет-Серра
Продолжительность: 02:04:51
Перевод: Профессиональный многоголосый
Субтитры: Русские, английские, латышские, литовские, эстонские

В ролях
: Дуэйн Джонсон, Элдис Ходж, Пирс Броснан, Ноа Сентинео, Сара Шахи, Куинтесса Суинделл, Марван Кензари, Бодхи Сабонгуй, Мохаммед Амер, Джеймс Мойер

О фильме
: 5000 лет назад Чёрный Адам был наделен силами египетских богов и заключён в тюрьму. Теперь он освобождается из своей усыпальницы и готовится явить миру уникальный подход к борьбе за справедливость.
ЧЁРНЫЙ АДАМ | Финальный русский трейлер
Техданные
Качество: WEB-DL (2160p)
Видео: MPEG-H HEVC, 24.7 Мбит/с, 3840x2160, 23.976 кадр/с
Аудио: Русский (AC3, 6 ch, 640 Кбит/с), (AC3, 2 ch, 224 Кбит/с), английский (E-AC3+Atmos, 6 ch, 768 Кбит/с)

Релиз

Звук :
Аудио 1: AC3, 6 ch, 640 Кбит/с - Профессиональный многоголосый (NewComers)
Аудио 2: AC3, 2 ch, 224 Кбит/с - Профессиональный многоголосый (Jaskier)
Аудио 3: E-AC3+Atmos, 6 ch, 768 Кбит/с - Английский
Субтитры:
Русские (Forced, Full), английские (Forced, Full, SDH), латышские, литовские, эстонские

MediaInfo:

Общее
Уникальный идентификатор                 : 244903722114021184084585306341593537504 (0xB83EBDBEB3A883497D82EAFB34475BE0)
Полное имя                               : R:\Black.Adam.2022.x265.WEB-DL.2160p.HDR10-DV.mkv
Формат                                   : Matroska
Версия формата                           : Version 4
Размер файла                             : 23,0 Гбайт
Продолжительность                        : 2 ч. 4 м.
Общий поток                              : 26,4 Мбит/сек
Дата кодирования                         : UTC 2022-11-22 18:05:56
Программа кодирования                    : mkvmerge v72.0.0 ('Minuano (Six-eight)') 64-bit
Библиотека кодирования                   : libebml v1.4.4 + libmatroska v1.7.1
Видео
Идентификатор                            : 1
Формат                                   : HEVC
Формат/Информация                        : High Efficiency Video Coding
Профиль формата                          : Main 10@L5@High
HDR format                               : Dolby Vision, Version 1.0, dvhe.08.06, BL+RPU, HDR10 compatible / SMPTE ST 2086, HDR10 compatible
Идентификатор кодека                     : V_MPEGH/ISO/HEVC
Продолжительность                        : 2 ч. 4 м.
Битрейт                                  : 24,7 Мбит/сек
Ширина                                   : 3 840 пикселей
Высота                                   : 2 160 пикселей
Соотношение сторон                       : 16:9
Режим частоты кадров                     : Постоянный
Частота кадров                           : 23,976 (24000/1001) кадра/сек
Цветовое пространство                    : YUV
Субдискретизация насыщенности            : 4:2:0 (Type 2)
Битовая глубина                          : 10 бит
Бит/(Пиксели*Кадры)                      : 0.124
Размер потока                            : 21,6 Гбайт (94%)
Язык                                     : English
Default                                  : Да
Forced                                   : Да
Цветовой диапазон                        : Limited
Основные цвета                           : BT.2020
Характеристики трансфера                 : PQ
Коэффициенты матрицы                     : BT.2020 non-constant
Mastering display color primaries        : Display P3
Mastering display luminance              : min: 0.0001 cd/m2, max: 1000 cd/m2
Maximum Content Light Level              : 718 cd/m2
Maximum Frame-Average Light Level        : 301 cd/m2
Аудио #1
Идентификатор                            : 2
Формат                                   : AC-3
Формат/Информация                        : Audio Coding 3
Коммерческое название                    : Dolby Digital
Идентификатор кодека                     : A_AC3
Продолжительность                        : 2 ч. 4 м.
Вид битрейта                             : Постоянный
Битрейт                                  : 640 Кбит/сек
Каналы                                   : 6 каналов
Channel layout                           : L R C LFE Ls Rs
Частота                                  : 48,0 КГц
Частота кадров                           : 31,250 кадров/сек (1536 SPF)
Метод сжатия                             : С потерями
Размер потока                            : 572 Мбайт (2%)
Заголовок                                : NewComers
Язык                                     : Russian
Service kind                             : Complete Main
Default                                  : Да
Forced                                   : Да
Аудио #2
Идентификатор                            : 3
Формат                                   : AC-3
Формат/Информация                        : Audio Coding 3
Коммерческое название                    : Dolby Digital
Идентификатор кодека                     : A_AC3
Продолжительность                        : 2 ч. 4 м.
Вид битрейта                             : Постоянный
Битрейт                                  : 224 Кбит/сек
Каналы                                   : 2 канала
Channel layout                           : L R
Частота                                  : 48,0 КГц
Частота кадров                           : 31,250 кадров/сек (1536 SPF)
Метод сжатия                             : С потерями
Размер потока                            : 200 Мбайт (1%)
Заголовок                                : Jaskier
Язык                                     : Russian
Service kind                             : Complete Main
Default                                  : Нет
Forced                                   : Нет
Аудио #3
Идентификатор                            : 4
Формат                                   : E-AC-3 JOC
Формат/Информация                        : Enhanced AC-3 with Joint Object Coding
Коммерческое название                    : Dolby Digital Plus with Dolby Atmos
Идентификатор кодека                     : A_EAC3
Продолжительность                        : 2 ч. 4 м.
Вид битрейта                             : Постоянный
Битрейт                                  : 768 Кбит/сек
Каналы                                   : 6 каналов
Channel layout                           : L R C LFE Ls Rs
Частота                                  : 48,0 КГц
Частота кадров                           : 31,250 кадров/сек (1536 SPF)
Метод сжатия                             : С потерями
Размер потока                            : 686 Мбайт (3%)
Язык                                     : English
Service kind                             : Complete Main
Default                                  : Нет
Forced                                   : Нет
Complexity index                         : 16
Number of dynamic objects                : 15
Bed channel count                        : 1 канал
Bed channel configuration                : LFE
Текст #1
Идентификатор                            : 5
Формат                                   : UTF-8
Идентификатор кодека                     : S_TEXT/UTF8
Идентификатор кодека/Информация          : UTF-8 Plain Text
Продолжительность                        : 1 ч. 55 м.
Битрейт                                  : 3 бит/сек
Частота кадров                           : 0,013 кадр/сек
Count of elements                        : 88
Размер потока                            : 3,34 Кбайт (0%)
Заголовок                                : Forced
Язык                                     : Russian
Default                                  : Да
Forced                                   : Да
Текст #2
Идентификатор                            : 6
Формат                                   : UTF-8
Идентификатор кодека                     : S_TEXT/UTF8
Идентификатор кодека/Информация          : UTF-8 Plain Text
Продолжительность                        : 2 ч. 3 м.
Битрейт                                  : 68 бит/сек
Частота кадров                           : 0,175 кадр/сек
Count of elements                        : 1297
Размер потока                            : 62,4 Кбайт (0%)
Заголовок                                : Full
Язык                                     : Russian
Default                                  : Нет
Forced                                   : Нет
Текст #3
Идентификатор                            : 7
Формат                                   : UTF-8
Идентификатор кодека                     : S_TEXT/UTF8
Идентификатор кодека/Информация          : UTF-8 Plain Text
Продолжительность                        : 2 ч. 3 м.
Битрейт                                  : 42 бит/сек
Частота кадров                           : 0,170 кадр/сек
Count of elements                        : 1262
Размер потока                            : 38,6 Кбайт (0%)
Язык                                     : Latvian
Default                                  : Нет
Forced                                   : Нет
Текст #4
Идентификатор                            : 8
Формат                                   : UTF-8
Идентификатор кодека                     : S_TEXT/UTF8
Идентификатор кодека/Информация          : UTF-8 Plain Text
Продолжительность                        : 2 ч. 3 м.
Битрейт                                  : 43 бит/сек
Частота кадров                           : 0,170 кадр/сек
Count of elements                        : 1262
Размер потока                            : 39,8 Кбайт (0%)
Язык                                     : Lithuanian
Default                                  : Нет
Forced                                   : Нет
Текст #5
Идентификатор                            : 9
Формат                                   : UTF-8
Идентификатор кодека                     : S_TEXT/UTF8
Идентификатор кодека/Информация          : UTF-8 Plain Text
Продолжительность                        : 2 ч. 3 м.
Битрейт                                  : 36 бит/сек
Частота кадров                           : 0,169 кадр/сек
Count of elements                        : 1251
Размер потока                            : 33,0 Кбайт (0%)
Язык                                     : Estonian
Default                                  : Нет
Forced                                   : Нет
Текст #6
Идентификатор                            : 10
Формат                                   : UTF-8
Идентификатор кодека                     : S_TEXT/UTF8
Идентификатор кодека/Информация          : UTF-8 Plain Text
Продолжительность                        : 1 ч. 42 м.
Битрейт                                  : 2 бит/сек
Частота кадров                           : 0,012 кадр/сек
Count of elements                        : 76
Размер потока                            : 1,61 Кбайт (0%)
Заголовок                                : Forced
Язык                                     : English
Default                                  : Нет
Forced                                   : Нет
Текст #7
Идентификатор                            : 11
Формат                                   : UTF-8
Идентификатор кодека                     : S_TEXT/UTF8
Идентификатор кодека/Информация          : UTF-8 Plain Text
Продолжительность                        : 1 ч. 56 м.
Битрейт                                  : 47 бит/сек
Частота кадров                           : 0,194 кадр/сек
Count of elements                        : 1356
Размер потока                            : 40,3 Кбайт (0%)
Заголовок                                : Full
Язык                                     : English
Default                                  : Нет
Forced                                   : Нет
Текст #8
Идентификатор                            : 12
Формат                                   : UTF-8
Идентификатор кодека                     : S_TEXT/UTF8
Идентификатор кодека/Информация          : UTF-8 Plain Text
Продолжительность                        : 1 ч. 56 м.
Битрейт                                  : 58 бит/сек
Частота кадров                           : 0,253 кадр/сек
Count of elements                        : 1769
Размер потока                            : 50,0 Кбайт (0%)
Заголовок                                : SDH
Язык                                     : English
Default                                  : Нет
Forced                                   : Нет
Меню
00:00:00.000                             : en:1
00:10:22.000                             : en:2
00:19:56.000                             : en:3
00:29:28.000                             : en:4
00:38:32.000                             : en:5
00:50:39.000                             : en:6
01:00:17.000                             : en:7
01:09:40.000                             : en:8
01:19:31.000                             : en:9
01:29:06.000                             : en:10
01:40:14.000                             : en:11
01:49:34.000                             : en:12
01:53:06.000                             : en:13

Скриншоты

MAGNET

Открой меня

magnet:?xt=urn:btih:31FF484CA9D620F316D1237526E1778AFA6AD0D4&dn=Black.Adam.2022.x265.WEB-DL.2160p.HDR10-DV.mkv&tr=http%3a%2f%2ftr0.tor2me.info%2fann%3fuk%3dF5E20kt2HF&tr=http%3a%2f%2ftr0.torrent4me.com%2fann%3fuk%3dF5E20kt2HF&tr=http%3a%2f%2ftr0.tor4me.info%2fann%3fuk%3dF5E20kt2HF&tr=http%3a%2f%2fretracker.local%2fannounce&tr=http%3a%2f%2fxbt.setitagila.ru%3a2710%2fannounce

[Цитировать]



Показать сообщения:    

Текущее время: 14-Июл 09:45

Часовой пояс: UTC + 6


Вы не можете начинать темы
Вы не можете отвечать на сообщения
Вы не можете редактировать свои сообщения
Вы не можете удалять свои сообщения
Вы не можете голосовать в опросах
Вы не можете прикреплять файлы к сообщениям
Вы не можете скачивать файлы

!ВНИМАНИЕ!
Сайт не предоставляет электронные версии произведений, а занимается лишь коллекционированием и каталогизацией ссылок, присылаемых и публикуемых на форуме нашими читателями. Если вы являетесь правообладателем какого-либо представленного материала и не желаете, чтобы ссылка на него находилась в нашем каталоге, свяжитесь с нами, и мы незамедлительно удалим ее. Файлы для обмена на трекере предоставлены пользователями сайта, и администрация не несет ответственности за их содержание. Просьба не заливать файлы, защищенные авторскими правами, а также файлы нелегального содержания!