***Уважаемые пользователи и гости !!! Сайт переехал на новый домен Torrents-club.info. Просьба изменить ваши закладки! ***
 
[ Сегодня идет свободное скачивание без начисления Download ]


Статистика раздачи
Скачал: [ 1 ]
 
   
 
 
 
 
Валериан и город тысячи планет / Valerian and the City of a Thousand Planets (2017) [4K, HEVC, HDR, Dolby Vision / Blu-Ray Remux] (2160p) Год выпуска: 2017
Жанр: Фантастика, фэнтези, боевик, приключения
Выпущено: Франция
Режиссер: Люк Бессон
Продолжительность: 02:17:04
Перевод: Дублированный
Субтитры: Русские, английские
Возраст 12+

В ролях
: Дэйн ДеХаан, Кара Делевинь, Клайв Оуэн, Рианна, Итэн Хоук, Херби Хэнкок, Крис У, Сэм Спруэлл, Ален Шаба, Рутгер Хауэр
О фильме: Валериан и Лорелин - на вид милые юноша и девушка с открытыми, преисполненными общечеловеческими идеалами лицами. Между тем, оба - агенты полицейских сил, отличники строевой и политической, морально устойчивы, в быту выдержаны и беспощадны к врагам Земного Альянса. И вот этот образцовый коллектив прибывает на космическую станцию "Альфа", которая за семь с лишним веков разрослась от МКС до огромного лабиринта планетарного масштаба. Станцию населяют более 30 миллионов существ из тысячи разных миров. Существа мирно делят квадратные метры, обмениваются передовым опытом и активно занимаются установлением гармонии среди миролюбивых народов интергалактического товарищества. Однако, в недрах комплекса зреет и борется за жизненное пространство радиационная аномалия, угрожающая развалить на части все достижения народного хозяйства. Крепко спаянному дуэту агентов предстоит не только распутать это гиблое дело в конкретно сжатые сроки, но и преодолеть сопротивление полностью разложившихся субъектов и прочих беззастенчивых элементов, готовых на все ради собственной выгоды
Валериан и город тысячи планет — Русский трейлер
Техданные
Качество: Blu-Ray Remux (2160p)
Видео: MPEG-H HEVC, 44.4 Mбит/с, 3840x2160
Аудио: Русский (AC3, 6 ch, 640 Кбит/с), (DTS-HD MA, 8 ch, 3936 Кбит/с), английский (TrueHD with Dolby Atmos, 8 ch, 4424 Кбит/с), (AC3-EX, 6 ch, 640 Кбит/с)

Релиз

Релиз от Dolby Vision Torrents
Релиз в формате Dolby Vision в контейнере MKV(Profile 8) для совместимости со всеми поддерживаемыми DV устройствами: nVidia Shield Pro 2019, Zidoo/Dune на SOC Realtek RTD1619DR, Ugoos AM6 Plus, Sony XG/XH. Не подтверждено ТВ Philips на Android TV.
Плееры Android TV с поддержкой Dolby Vision: ExoPlayer, ViMu Media Player for TV 8.8.8 и выше, Kodi 19 и выше, Plex, Just Player, Emby.
Субтитры: русские (полные, форс.), английские (полные, SDH, SDH Colored)
20.02.2021 Раздача обновлена: добавлены русская DTS-HD MA, английская TrueHD аудиодорожки, английские SDH и SDH Colored субтитры.

MediaInfo:

General
Unique ID                   : 11684093491721798786379995211109885028 (0x8CA464918D948111391469A2755E464)
Complete name               : \\DS918\video\Kino 4K DV\Valerian.and.the.City.of.a.Thousand.Planets.2017.UHD.BDREMUX.2160p.HDR.DV.mkv
Format                      : Matroska
Format version              : Version 2
File size                   : 51.8 GiB
Duration                    : 2 h 17 min
Overall bit rate mode       : Variable
Overall bit rate            : 54.1 Mb/s
Movie name                  : Valerian.and.the.City.of.a.Thousand.Planets.2017.UHD.BDREMUX.2160p.HDR.DV
Encoded date                : UTC 2021-02-19 17:50:47
Writing application         : MakeMKV v1.15.4 win(x64-release)
Writing library             : libmakemkv v1.15.4 (1.3.10/1.5.2) win(x64-release)
Video
ID                          : 1
Format                      : HEVC
Format/Info                 : High Efficiency Video Coding
Format profile              : Main 10@L5.1@High
HDR format                  : Dolby Vision, Version 1.0, dvhe.08.06, BL+RPU, Blu-ray compatible / SMPTE ST 2086, HDR10 compatible
Codec ID                    : V_MPEGH/ISO/HEVC
Duration                    : 2 h 17 min
Bit rate                    : 44.4 Mb/s
Width                       : 3 840 pixels
Height                      : 2 160 pixels
Display aspect ratio        : 16:9
Frame rate mode             : Constant
Frame rate                  : 23.976 (24000/1001) FPS
Color space                 : YUV
Chroma subsampling          : 4:2:0 (Type 2)
Bit depth                   : 10 bits
Bits/(Pixel*Frame)          : 0.223
Stream size                 : 42.6 GiB (82%)
Language                    : English
Default                     : No
Forced                      : No
Color range                 : Limited
Color primaries             : BT.2020
Transfer characteristics    : PQ
Matrix coefficients         : BT.2020 non-constant
Mastering display color pri : Display P3
Mastering display luminance : min: 0.0050 cd/m2, max: 1000 cd/m2
Maximum Content Light Level : 632 cd/m2
Maximum Frame-Average Light : 298 cd/m2
Audio #1
ID                          : 2
Format                      : AC-3
Format/Info                 : Audio Coding 3
Commercial name             : Dolby Digital
Codec ID                    : A_AC3
Duration                    : 2 h 17 min
Bit rate mode               : Constant
Bit rate                    : 640 kb/s
Channel(s)                  : 6 channels
Channel layout              : L R C LFE Ls Rs
Sampling rate               : 48.0 kHz
Frame rate                  : 31.250 FPS (1536 SPF)
Compression mode            : Lossy
Stream size                 : 627 MiB (1%)
Title                       : Dub
Language                    : Russian
Service kind                : Complete Main
Default                     : Yes
Forced                      : No
Audio #2
ID                          : 3
Format                      : DTS XLL
Format/Info                 : Digital Theater Systems
Commercial name             : DTS-HD Master Audio
Codec ID                    : A_DTS
Duration                    : 2 h 17 min
Bit rate mode               : Variable
Bit rate                    : 3 936 kb/s
Channel(s)                  : 8 channels
Channel layout              : C L R LFE Lb Rb Lss Rss
Sampling rate               : 48.0 kHz
Frame rate                  : 93.750 FPS (512 SPF)
Bit depth                   : 24 bits
Compression mode            : Lossless
Stream size                 : 3.77 GiB (7%)
Title                       : Dub
Language                    : Russian
Default                     : No
Forced                      : No
Audio #3
ID                          : 4
Format                      : MLP FBA 16-ch
Format/Info                 : Meridian Lossless Packing FBA with 16-channel presentation
Commercial name             : Dolby TrueHD with Dolby Atmos
Codec ID                    : A_TRUEHD
Duration                    : 2 h 17 min
Bit rate mode               : Variable
Bit rate                    : 4 424 kb/s
Maximum bit rate            : 7 089 kb/s
Channel(s)                  : 8 channels
Channel layout              : L R C LFE Ls Rs Lb Rb
Sampling rate               : 48.0 kHz
Frame rate                  : 1 200.000 FPS (40 SPF)
Bit depth                   : 24 bits
Compression mode            : Lossless
Stream size                 : 4.24 GiB (8%)
Title                       : Surround 7.1
Language                    : English
Default                     : No
Forced                      : No
Number of dynamic objects   : 15
Bed channel count           : 1 channel
Bed channel configuration   : LFE
Audio #4
ID                          : 5
Format                      : AC-3
Format/Info                 : Audio Coding 3
Commercial name             : Dolby Digital
Format settings             : Dolby Surround EX
Codec ID                    : A_AC3
Duration                    : 2 h 17 min
Bit rate mode               : Constant
Bit rate                    : 640 kb/s
Channel(s)                  : 6 channels
Channel layout              : L R C LFE Ls Rs
Sampling rate               : 48.0 kHz
Frame rate                  : 31.250 FPS (1536 SPF)
Compression mode            : Lossy
Stream size                 : 627 MiB (1%)
Title                       : Surround 5.1
Language                    : English
Service kind                : Complete Main
Default                     : No
Forced                      : No
Text #1
ID                          : 6
Format                      : UTF-8
Codec ID                    : S_TEXT/UTF8
Codec ID/Info               : UTF-8 Plain Text
Duration                    : 2 h 8 min
Bit rate                    : 1 b/s
Count of elements           : 34
Stream size                 : 1.29 KiB (0%)
Title                       : Forced
Language                    : Russian
Default                     : Yes
Forced                      : No
Text #2
ID                          : 7
Format                      : UTF-8
Codec ID                    : S_TEXT/UTF8
Codec ID/Info               : UTF-8 Plain Text
Duration                    : 2 h 6 min
Bit rate                    : 87 b/s
Count of elements           : 1541
Stream size                 : 81.3 KiB (0%)
Title                       : Full
Language                    : Russian
Default                     : No
Forced                      : No
Text #3
ID                          : 8
Format                      : UTF-8
Codec ID                    : S_TEXT/UTF8
Codec ID/Info               : UTF-8 Plain Text
Duration                    : 2 h 13 min
Bit rate                    : 57 b/s
Count of elements           : 1630
Stream size                 : 56.2 KiB (0%)
Title                       : Full
Language                    : English
Default                     : No
Forced                      : No
Text #4
ID                          : 9
Format                      : UTF-8
Codec ID                    : S_TEXT/UTF8
Codec ID/Info               : UTF-8 Plain Text
Duration                    : 2 h 13 min
Bit rate                    : 63 b/s
Count of elements           : 1906
Stream size                 : 62.4 KiB (0%)
Title                       : Full, SDH
Language                    : English
Default                     : No
Forced                      : No
Text #5
ID                          : 10
Format                      : UTF-8
Codec ID                    : S_TEXT/UTF8
Codec ID/Info               : UTF-8 Plain Text
Duration                    : 2 h 13 min
Bit rate                    : 78 b/s
Count of elements           : 1906
Stream size                 : 76.6 KiB (0%)
Title                       : Full, SDH - Colored
Language                    : English
Default                     : No
Forced                      : No
Menu
00:00:00.000                : en:Chapter 1
00:12:36.714                : en:Chapter 2
00:17:30.466                : en:Chapter 3
00:23:36.456                : en:Chapter 4
00:32:46.756                : en:Chapter 5
00:41:20.060                : en:Chapter 6
00:47:16.667                : en:Chapter 7
00:56:13.411                : en:Chapter 8
01:04:26.571                : en:Chapter 9
01:11:28.909                : en:Chapter 10
01:20:26.071                : en:Chapter 11
01:28:14.706                : en:Chapter 12
01:35:54.623                : en:Chapter 13
01:41:36.048                : en:Chapter 14
01:53:38.853                : en:Chapter 15
02:02:23.586                : en:Chapter 16

Скриншоты

[Цитировать]

20.02.2021 Раздача обновлена: добавлены русская DTS-HD MA, английская TrueHD аудиодорожки, английские SDH и SDH Colored субтитры.

[Цитировать]



Показать сообщения:    

Текущее время: 09-Мар 03:39

Часовой пояс: UTC + 6


Вы не можете начинать темы
Вы не можете отвечать на сообщения
Вы не можете редактировать свои сообщения
Вы не можете удалять свои сообщения
Вы не можете голосовать в опросах
Вы не можете прикреплять файлы к сообщениям
Вы не можете скачивать файлы

!ВНИМАНИЕ!
Сайт не предоставляет электронные версии произведений, а занимается лишь коллекционированием и каталогизацией ссылок, присылаемых и публикуемых на форуме нашими читателями. Если вы являетесь правообладателем какого-либо представленного материала и не желаете, чтобы ссылка на него находилась в нашем каталоге, свяжитесь с нами, и мы незамедлительно удалим ее. Файлы для обмена на трекере предоставлены пользователями сайта, и администрация не несет ответственности за их содержание. Просьба не заливать файлы, защищенные авторскими правами, а также файлы нелегального содержания!