***Уважаемые пользователи и гости !!! Сайт переехал на новый домен Torrents-club.info. Просьба изменить ваши закладки! ***
 
[ Сегодня идет свободное скачивание без начисления Download ]


Статистика раздачи
Нет
 
   
 
 
 
Скалолаз / Cliffhanger / 1993 [4K, HEVC, HDR / Blu-Ray Remux] (2160p) Год выпуска: 1993
Жанр: Боевик, триллер, приключения
Выпущено: Италия, Франция, США, Canal+, Carolco Pictures Inc., Cliffhanger Productions, Pioneer, RCS Video
Режиссер: Ренни Харлин
Продолжительность: 01:52:37
Перевод: Профессиональный многоголосый, профессиональный двухголосый, авторский
Субтитры: Русские, английские
возраст 12+

В ролях:
Сильвестр Сталлоне, Джон Литгоу, Майкл Рукер, Джанин Тёрнер, Рекс Линн, Кэролайн Гудолл, Леон, Крэйг Фэйрбрасс, Грегори Скотт Камминс, Дэнис Форест, Мишель Джойнер, Макс Перлих, Пол Уинфилд, Ральф Уэйт, Трей Браунелл, Зак Гренье, Вито Руджинис, Дон С. Дэвис, Дерек Хоксби, Джон Финн, Брюс МакГилл, Розмари Дансмор, Ким Робиллард, Джефф МакКарти, Майк Вэйз, Дункан Прентис, Кевин Дональд

О фильме:
В горах после снежной лавины теряются 5 человек. На их поиски отправляется один из лучших альпинистов и горных проводников — Гейб Уокер. Неожиданно он понимает, что его специально заманили в горы для совершенно другого дела. Также становится ясно, что Гейб станет нежелательным свидетелем, от которого без раздумья «избавятся». Но свою жизнь он терять так просто не собирается и объявляет безжалостную войну банде вооруженных до зубов боевиков под предводительством международного террориста Эрика Куалена…
Скалолаз
Техданные
Качество: Blu-Ray Remux (2160p)
Видео: HEVC HDR, 46.4 Mбит/с, 3840x2160, 24.000 кадр/с
Аудио: Русский (DTS, 6 ch, 1510 Кбит/с), (AC3, 2 ch, 192 Кбит/с), английский (DTS-HD MA, 6 ch, 3238 кбит/с)

Релиз

Русский (DTS, 6 ch, 1510 Кбит/с) / Профессиональный двухголосый (R5 Тwister)
Русский (AC3, 2 ch, 192 Кбит/с) / Профессиональный многоголосый (РТР)
Русский (AC3, 2 ch, 192 Кбит/с) / Профессиональный многоголосый (ОРТ)
Русский (AC3, 2 ch, 192 Кбит/с) / Профессиональный двухголосый (Премьер Видео Фильм)
Русский (AC3, 2 ch, 192 Кбит/с) / Профессиональный двухголосый (СТС)
Русский (DTS, 6 ch, 1510 Кбит/с) / Авторский (А. Гаврилов)
Русский (DTS, 6 ch, 1510 Кбит/с) / Авторский (В. Горчаков)
Русский (DTS, 6 ch, 1510 Кбит/с) / Авторский (Ю. Живов)

MediaInfo:

General
Unique ID : 202662632247318304964961050630716488035 (0x987767387729BC331A6B40AB77957963)
Complete name : D:\uTorrent\Cliffhanger.1993.BDRemux.2160p.HDR.MediaClub.mkv
Format : Matroska
Format version : Version 4
File size : 44.4 GiB
Duration : 1 h 52 min
Overall bit rate mode : Variable
Overall bit rate : 56.4 Mb/s
Encoded date : UTC 2018-11-14 12:40:12
Writing application : mkvmerge v28.2.0 ('The Awakening') 64-bit
Writing library : libebml v1.3.6 + libmatroska v1.4.9
Cover : Yes
Attachments : cover.jpg
Video
ID : 1
Format : HEVC
Format/Info : High Efficiency Video Coding
Commercial name : HDR10
Format profile : Main 10@L5.1@High
Codec ID : V_MPEGH/ISO/HEVC
Duration : 1 h 52 min
Bit rate : 46.4 Mb/s
Width : 3 840 pixels
Height : 2 160 pixels
Display aspect ratio : 16:9
Frame rate mode : Constant
Frame rate : 24.000 FPS
Color space : YUV
Chroma subsampling : 4:2:0 (Type 2)
Bit depth : 10 bits
Bits/(Pixel*Frame) : 0.233
Stream size : 36.5 GiB (82%)
Title : BDRemux.2160p.HDR by Silverok
Default : Yes
Forced : No
Color range : Limited
Color primaries : BT.2020
Transfer characteristics : PQ
Matrix coefficients : BT.2020 non-constant
Mastering display color primaries : BT.2020
Mastering display luminance : min: 0.0001 cd/m2, max: 1000 cd/m2
Audio #1
ID : 2
Format : DTS
Format/Info : Digital Theater Systems
Codec ID : A_DTS
Duration : 1 h 52 min
Bit rate mode : Constant
Bit rate : 1 510 kb/s
Channel(s) : 6 channels
Channel layout : C L R Ls Rs LFE
Sampling rate : 48.0 kHz
Frame rate : 93.750 FPS (512 SPF)
Bit depth : 24 bits
Compression mode : Lossy
Delay relative to video : 1 s 878 ms
Stream size : 1.19 GiB (3%)
Title : Профессиональный двухголосый (R5 Тwister)
Language : Russian
Default : Yes
Forced : No
Audio #2
ID : 3
Format : AC-3
Format/Info : Audio Coding 3
Commercial name : Dolby Digital
Codec ID : A_AC3
Duration : 1 h 52 min
Bit rate mode : Constant
Bit rate : 192 kb/s
Channel(s) : 2 channels
Channel layout : L R
Sampling rate : 48.0 kHz
Frame rate : 31.250 FPS (1536 SPF)
Bit depth : 16 bits
Compression mode : Lossy
Delay relative to video : 1 s 878 ms
Stream size : 155 MiB (0%)
Title : Профессиональный многоголосый (РТР)
Language : Russian
Service kind : Complete Main
Default : No
Forced : No
Audio #3
ID : 4
Format : AC-3
Format/Info : Audio Coding 3
Commercial name : Dolby Digital
Codec ID : A_AC3
Duration : 1 h 52 min
Bit rate mode : Constant
Bit rate : 192 kb/s
Channel(s) : 2 channels
Channel layout : L R
Sampling rate : 48.0 kHz
Frame rate : 31.250 FPS (1536 SPF)
Bit depth : 16 bits
Compression mode : Lossy
Delay relative to video : 1 s 878 ms
Stream size : 155 MiB (0%)
Title : Профессиональный многоголосый (ОРТ)
Language : Russian
Service kind : Complete Main
Default : No
Forced : No
Audio #4
ID : 5
Format : AC-3
Format/Info : Audio Coding 3
Commercial name : Dolby Digital
Codec ID : A_AC3
Duration : 1 h 52 min
Bit rate mode : Constant
Bit rate : 192 kb/s
Channel(s) : 2 channels
Channel layout : L R
Sampling rate : 48.0 kHz
Frame rate : 31.250 FPS (1536 SPF)
Bit depth : 16 bits
Compression mode : Lossy
Delay relative to video : 1 s 878 ms
Stream size : 155 MiB (0%)
Title : Профессиональный двухголосый (Премьер Видео Фильм)
Language : Russian
Service kind : Complete Main
Default : No
Forced : No
Audio #5
ID : 6
Format : AC-3
Format/Info : Audio Coding 3
Commercial name : Dolby Digital
Codec ID : A_AC3
Duration : 1 h 52 min
Bit rate mode : Constant
Bit rate : 192 kb/s
Channel(s) : 2 channels
Channel layout : L R
Sampling rate : 48.0 kHz
Frame rate : 31.250 FPS (1536 SPF)
Bit depth : 16 bits
Compression mode : Lossy
Delay relative to video : 1 s 878 ms
Stream size : 155 MiB (0%)
Title : Профессиональный двухголосый (СТС)
Language : Russian
Service kind : Complete Main
Default : No
Forced : No
Audio #6
ID : 7
Format : DTS
Format/Info : Digital Theater Systems
Codec ID : A_DTS
Duration : 1 h 52 min
Bit rate mode : Constant
Bit rate : 1 510 kb/s
Channel(s) : 6 channels
Channel layout : C L R Ls Rs LFE
Sampling rate : 48.0 kHz
Frame rate : 93.750 FPS (512 SPF)
Bit depth : 24 bits
Compression mode : Lossy
Delay relative to video : 1 s 878 ms
Stream size : 1.19 GiB (3%)
Title : Авторский (А. Гаврилов)
Language : Russian
Default : No
Forced : No
Audio #7
ID : 8
Format : DTS
Format/Info : Digital Theater Systems
Codec ID : A_DTS
Duration : 1 h 52 min
Bit rate mode : Constant
Bit rate : 1 510 kb/s
Channel(s) : 6 channels
Channel layout : C L R Ls Rs LFE
Sampling rate : 48.0 kHz
Frame rate : 93.750 FPS (512 SPF)
Bit depth : 24 bits
Compression mode : Lossy
Delay relative to video : 1 s 878 ms
Stream size : 1.19 GiB (3%)
Title : Авторский (В. Горчаков)
Language : Russian
Default : No
Forced : No
Audio #8
ID : 9
Format : DTS
Format/Info : Digital Theater Systems
Codec ID : A_DTS
Duration : 1 h 52 min
Bit rate mode : Constant
Bit rate : 1 510 kb/s
Channel(s) : 6 channels
Channel layout : C L R Ls Rs LFE
Sampling rate : 48.0 kHz
Frame rate : 93.750 FPS (512 SPF)
Bit depth : 24 bits
Compression mode : Lossy
Delay relative to video : 1 s 878 ms
Stream size : 1.19 GiB (3%)
Title : Авторский (Ю. Живов)
Language : Russian
Default : No
Forced : No
Audio #9
ID : 10
Format : DTS XLL
Format/Info : Digital Theater Systems
Commercial name : DTS-HD Master Audio
Codec ID : A_DTS
Duration : 1 h 52 min
Bit rate mode : Variable
Bit rate : 3 238 kb/s
Channel(s) : 6 channels
Channel layout : C L R Ls Rs LFE
Sampling rate : 48.0 kHz
Frame rate : 93.750 FPS (512 SPF)
Bit depth : 24 bits
Compression mode : Lossless
Stream size : 2.54 GiB (6%)
Language : English
Default : No
Forced : No
Text #1
ID : 11
Format : UTF-8
Codec ID : S_TEXT/UTF8
Codec ID/Info : UTF-8 Plain Text
Duration : 1 h 42 min
Bit rate : 78 b/s
Count of elements : 1064
Stream size : 58.8 KiB (0%)
Title : Full
Language : Russian
Default : Yes
Forced : No
Text #2
ID : 12
Format : UTF-8
Codec ID : S_TEXT/UTF8
Codec ID/Info : UTF-8 Plain Text
Duration : 1 h 43 min
Bit rate : 58 b/s
Count of elements : 1299
Stream size : 44.7 KiB (0%)
Title : SDH
Language : English
Default : No
Forced : No
Menu
00:00:00.000 : en:Chapter 1
00:06:06.300 : en:Chapter 2
00:13:24.001 : en:Chapter 3
00:20:37.768 : en:Chapter 4
00:22:47.335 : en:Chapter 5
00:27:13.969 : en:Chapter 6
00:30:00.036 : en:Chapter 7
00:34:26.370 : en:Chapter 8
00:38:01.537 : en:Chapter 9
00:40:24.771 : en:Chapter 10
00:45:10.705 : en:Chapter 11
00:49:05.272 : en:Chapter 12
00:49:50.305 : en:Chapter 13
00:52:17.173 : en:Chapter 14
00:55:14.440 : en:Chapter 15
01:03:32.208 : en:Chapter 16
01:11:04.241 : en:Chapter 17
01:14:17.875 : en:Chapter 18
01:18:23.442 : en:Chapter 19
01:21:54.109 : en:Chapter 20
01:25:56.609 : en:Chapter 21
01:29:17.276 : en:Chapter 22
01:32:12.610 : en:Chapter 23
01:33:50.244 : en:Chapter 24
01:35:27.377 : en:Chapter 25
01:37:26.111 : en:Chapter 26
01:41:48.378 : en:Chapter 27
01:42:55.645 : en:Chapter 28

Скриншоты

[Цитировать]



Показать сообщения:    

Текущее время: 27-Май 18:43

Часовой пояс: UTC + 6


Вы не можете начинать темы
Вы не можете отвечать на сообщения
Вы не можете редактировать свои сообщения
Вы не можете удалять свои сообщения
Вы не можете голосовать в опросах
Вы не можете прикреплять файлы к сообщениям
Вы не можете скачивать файлы

!ВНИМАНИЕ!
Сайт не предоставляет электронные версии произведений, а занимается лишь коллекционированием и каталогизацией ссылок, присылаемых и публикуемых на форуме нашими читателями. Если вы являетесь правообладателем какого-либо представленного материала и не желаете, чтобы ссылка на него находилась в нашем каталоге, свяжитесь с нами, и мы незамедлительно удалим ее. Файлы для обмена на трекере предоставлены пользователями сайта, и администрация не несет ответственности за их содержание. Просьба не заливать файлы, защищенные авторскими правами, а также файлы нелегального содержания!