***Уважаемые пользователи и гости !!! Сайт переехал на новый домен Torrents-club.info. Просьба изменить ваши закладки! ***
 
[ Сегодня идет свободное скачивание без начисления Download ]


Статистика раздачи
Нет
 
   
 
 
 
Мег: Монстр глубины / The Meg / 2018 [4K, HEVC, HDR / Blu-Ray Remux] (2160p)
Год выпуска
: 2018
Жанр: Ужасы, фантастика, боевик, триллер
Выпущено: США, Китай, Apelles Entertainment, Di Bonaventura Pictures, Flagship Entertainment Group
Режиссер: Джон Тёртлтауб
Продолжительность: 01:53:13
Перевод: Дублированный
Субтитры: Русские, английские
возраст 16+

В ролях
: Джейсон Стэйтем, Бинбин Ли, Рэйн Уилсон, Клифф Кёртис, Уинстон Чао, Шуя Софиа Цай, Руби Роуз, Пейдж Кеннеди, Роберт Тейлор (II), Оулавюр Дарри

О фильме
: Глубоководный батискаф, осуществляющий наблюдение в рамках международной программы по изучению подводной жизни, был атакован огромным существом, которое все считали давно вымершим. Неисправный аппарат теперь лежит на дне глубочайшей впадины Тихого океана… с оказавшимся в ловушке экипажем. Их время на исходе. Китайский океанограф-новатор, несмотря на протесты его дочери Суинь, зовет спасателя-подводника Джонаса Тейлора, чтобы тот помог спасти команду и океан от невиданной угрозы — доисторической 23-метровой акулы, мегалодона. Никто и подумать не мог, что много лет назад Тейлор уже сталкивался с этим чудовищным созданием.
Мег: Монстр глубины - Трейлер на Русском | 2018 | 2160p
Техданные
Субтитры: Русские (полные, форсированные), украинские (форсированные), английские
Качество: Blu-Ray Remux (2160p)
Видео: HEVC, 47.9 Mбит/с, 3840x2160
Аудио: Русский (АC3, 6 ch, 448 Кбит/с), украинский (AC3, 2 ch, 160 Кбит/c), английский (TrueHD, 8 ch, 3840 Кбит/с), (АC3, 6 ch, 448 Кбит/с)

MediaInfo:

General
Unique ID : 110481715487241715864270481493922701270 (0x531E01216F25ED4CBE23AAF2B6F45FD6)
Complete name : D:\Video111\The.Meg.2018.Lic.BDREMUX.2160p.HDR.selezen.mkv
Format : Matroska
Format version : Version 4
File size : 41.2 GiB
Duration : 1 h 53 min
Overall bit rate mode : Variable
Overall bit rate : 52.1 Mb/s
Movie name : The Meg 2018 from селезень
Encoded date : UTC 2018-11-11 05:17:21
Writing application : mkvmerge v28.2.0 ('The Awakening') 64-bit
Writing library : libebml v1.3.6 + libmatroska v1.4.9
Video
ID : 1
Format : HEVC
Format/Info : High Efficiency Video Coding
Commercial name : HDR10
Format profile : Main 10@L5.1@High
Codec ID : V_MPEGH/ISO/HEVC
Duration : 1 h 53 min
Bit rate : 47.9 Mb/s
Width : 3 840 pixels
Height : 2 160 pixels
Display aspect ratio : 16:9
Frame rate mode : Constant
Frame rate : 23.976 (24000/1001) FPS
Color space : YUV
Chroma subsampling : 4:2:0 (Type 2)
Bit depth : 10 bits
Bits/(Pixel*Frame) : 0.241
Stream size : 37.9 GiB (92%)
Default : Yes
Forced : No
Color range : Limited
Color primaries : BT.2020
Transfer characteristics : PQ
Matrix coefficients : BT.2020 non-constant
Mastering display color pri : Display P3
Mastering display luminance : min: 0.0050 cd/m2, max: 4000 cd/m2
Maximum Content Light Level : 4000 cd/m2
Maximum Frame-Average Light : 1193 cd/m2
Audio #1
ID : 2
Format : AC-3
Format/Info : Audio Coding 3
Commercial name : Dolby Digital
Codec ID : A_AC3
Duration : 1 h 53 min
Bit rate mode : Constant
Bit rate : 448 kb/s
Channel(s) : 6 channels
Channel layout : L R C LFE Ls Rs
Sampling rate : 48.0 kHz
Frame rate : 31.250 FPS (1536 SPF)
Bit depth : 16 bits
Compression mode : Lossy
Stream size : 363 MiB (1%)
Title : Dub [License]
Language : Russian
Service kind : Complete Main
Default : Yes
Forced : Yes
Audio #2
ID : 3
Format : AC-3
Format/Info : Audio Coding 3
Commercial name : Dolby Digital
Codec ID : A_AC3
Duration : 1 h 53 min
Bit rate mode : Constant
Bit rate : 160 kb/s
Channel(s) : 2 channels
Channel layout : L R
Sampling rate : 48.0 kHz
Frame rate : 31.250 FPS (1536 SPF)
Bit depth : 16 bits
Compression mode : Lossy
Stream size : 130 MiB (0%)
Title : Dub
Language : Ukrainian
Service kind : Complete Main
Default : No
Forced : No
Audio #3
ID : 4
Format : MLP FBA 16-ch
Format/Info : Meridian Lossless Packing FBA with 16-channel presentation
Commercial name : Dolby TrueHD with Dolby Atmos
Codec ID : A_TRUEHD
Duration : 1 h 53 min
Bit rate mode : Variable
Bit rate : 3 051 kb/s
Maximum bit rate : 5 067 kb/s
Channel(s) : 8 channels
Channel layout : L R C LFE Ls Rs Lb Rb
Sampling rate : 48.0 kHz
Frame rate : 1 200.000 FPS (40 SPF)
Compression mode : Lossless
Stream size : 2.41 GiB (6%)
Title : Original
Language : English
Default : No
Forced : No
Number of dynamic objects : 11
Bed channel count : 1 channel
Bed channel configuration : LFE
Audio #4
ID : 5
Format : AC-3
Format/Info : Audio Coding 3
Commercial name : Dolby Digital
Codec ID : A_AC3
Duration : 1 h 53 min
Bit rate mode : Constant
Bit rate : 448 kb/s
Channel(s) : 6 channels
Channel layout : L R C LFE Ls Rs
Sampling rate : 48.0 kHz
Frame rate : 31.250 FPS (1536 SPF)
Bit depth : 16 bits
Compression mode : Lossy
Stream size : 363 MiB (1%)
Language : English
Service kind : Complete Main
Default : No
Forced : No
Text #1
ID : 6
Format : UTF-8
Codec ID : S_TEXT/UTF8
Codec ID/Info : UTF-8 Plain Text
Duration : 1 h 41 min
Bit rate : 5 b/s
Count of elements : 97
Stream size : 3.81 KiB (0%)
Title : Forced
Language : Russian
Default : Yes
Forced : Yes
Text #2
ID : 7
Format : UTF-8
Codec ID : S_TEXT/UTF8
Codec ID/Info : UTF-8 Plain Text
Duration : 1 h 52 min
Bit rate : 78 b/s
Count of elements : 1203
Stream size : 64.6 KiB (0%)
Title : Full
Language : Russian
Default : No
Forced : No
Text #3
ID : 8
Format : UTF-8
Codec ID : S_TEXT/UTF8
Codec ID/Info : UTF-8 Plain Text
Duration : 1 h 52 min
Bit rate : 5 b/s
Count of elements : 111
Stream size : 4.20 KiB (0%)
Title : Forced
Language : Ukrainian
Default : No
Forced : No
Text #4
ID : 9
Format : UTF-8
Codec ID : S_TEXT/UTF8
Codec ID/Info : UTF-8 Plain Text
Duration : 1 h 41 min
Bit rate : 51 b/s
Count of elements : 1409
Stream size : 38.1 KiB (0%)
Title : SDH
Language : English
Default : No
Forced : No
Menu
00:00:00.000 : en:Chapter 1
00:08:48.569 : en:Chapter 2
00:18:13.884 : en:Chapter 3
00:27:09.878 : en:Chapter 4
00:39:30.117 : en:Chapter 5
00:49:10.906 : en:Chapter 6
00:58:00.768 : en:Chapter 7
01:08:22.640 : en:Chapter 8
01:19:45.405 : en:Chapter 9
01:30:03.439 : en:Chapter 10
01:42:40.362 : en:Chapter 11

Скриншоты

[Цитировать]



Показать сообщения:    

Текущее время: 23-Май 14:21

Часовой пояс: UTC + 6


Вы не можете начинать темы
Вы не можете отвечать на сообщения
Вы не можете редактировать свои сообщения
Вы не можете удалять свои сообщения
Вы не можете голосовать в опросах
Вы не можете прикреплять файлы к сообщениям
Вы не можете скачивать файлы

!ВНИМАНИЕ!
Сайт не предоставляет электронные версии произведений, а занимается лишь коллекционированием и каталогизацией ссылок, присылаемых и публикуемых на форуме нашими читателями. Если вы являетесь правообладателем какого-либо представленного материала и не желаете, чтобы ссылка на него находилась в нашем каталоге, свяжитесь с нами, и мы незамедлительно удалим ее. Файлы для обмена на трекере предоставлены пользователями сайта, и администрация не несет ответственности за их содержание. Просьба не заливать файлы, защищенные авторскими правами, а также файлы нелегального содержания!