***Уважаемые пользователи и гости !!! Сайт переехал на новый домен Torrents-club.info. Просьба изменить ваши закладки! ***
 
[ Сегодня идет свободное скачивание без начисления Download ]


Статистика раздачи
Качаю: [ 2 ]
Скачал: [ 4 ]
 
   
 
 
 
 
Джокер / Joker (2019) [4K, HEVC, HDR / Blu-Ray Remux] (2160p) Год выпуска: 2019
Жанр: Триллер, драма, криминал
Выпущено: Канада, США, Warner Bros., Village Roadshow Pictures, DC Entertainment, DC Comics, 22 & Indiana Pictures
Режиссер: Тодд Филлипс
Продолжительность: 02:01:47
Перевод: Дублированный, профессиональный многоголосый
Субтитры: Русские, английские
возраст 18+

В ролях
: Хоакин Феникс, Роберт Де Ниро, Зази Битц, Джоли Чань, Марк Мэрон, Фрэнсис Конрой, Мэри Кейт Малат, Ши Уигхэм, Брайан Коллен, Бретт Каллен, Билл Кэмп, Гленн Флешлер, Ли Гилл, Джош Пэйс

О фильме:
Готэм, начало 1980-х годов. Комик Артур Флек живет с больной матерью, которая с детства учит его «ходить с улыбкой». Пытаясь нести в мир хорошее и дарить людям радость, Артур сталкивается с человеческой жестокостью и постепенно приходит к выводу, что этот мир получит от него не добрую улыбку, а ухмылку злодея Джокера.
Джокер — Русский трейлер (2019)
Техданные
Качество: Blu-Ray Remux (2160p)
Видео: HEVC, 50.2 Mбит/с, 3840x2160
Аудио: Русский (AC3, 2 ch, 192 Кбит/с), (DTS-HD MA, 8 ch, 5179 Кбит/с), , украинский (AC3, 2 ch, 192 Кбит/с), английский (TrueHD, 8 ch, 3819 Кбит/с), (AC3, 6 ch, 640 Кбит/с)
Релиз: селезень
Озвучивание:
#1: Дублированное [Онлайн кинотеатр]
#2: Профессиональное многоголосое [HDRezka Studio]
#3: Авторское [Михаил Чадов]
Субтитры: Русские (2 x полные [Enigma, iTunes], форсированные [Enigma]), английские
*Без рекламы
Перевод Михаила Чадова доступен благодаря: Stimco, mv73, braindrill, kostasmen, marveltm, Loki1982, Seven7, vovan_vvs, other_code, evmar08, kokaino1987, kidman644, RafL, Skvor, podorov92, Desintegrator, equinox, mark, van156, R.U., DaviD18_85, Corvus_1988. Работа со звуком: Stimco

MediaInfo:

General
Unique ID                   : 327815016536139310489992903162363755621 (0xF69EE02B092C9C81848A9066DFD1BC65)
Complete name               : F:\Video111\Joker.2019.D.MVO.AVO.BDREMUX.2160p.HDR.seleZen.mkv
Format                      : Matroska
Format version              : Version 4
File size                   : 51.5 GiB
Duration                    : 2 h 1 min
Overall bit rate mode       : Variable
Overall bit rate            : 60.5 Mb/s
Movie name                  : Joker 2019 from селезень
Encoded date                : UTC 2019-12-21 11:57:48
Writing application         : mkvmerge v40.0.0 ('Old Town Road + Pony') 64-bit
Writing library             : libebml v1.3.9 + libmatroska v1.5.2
Video
ID                          : 1
Format                      : HEVC
Format/Info                 : High Efficiency Video Coding
Format profile              : Main 10@L5.1@High
HDR format                  : SMPTE ST 2086, HDR10 compatible
Codec ID                    : V_MPEGH/ISO/HEVC
Duration                    : 2 h 1 min
Bit rate                    : 50.2 Mb/s
Width                       : 3 840 pixels
Height                      : 2 160 pixels
Display aspect ratio        : 16:9
Frame rate mode             : Constant
Frame rate                  : 23.976 (24000/1001) FPS
Color space                 : YUV
Chroma subsampling          : 4:2:0 (Type 2)
Bit depth                   : 10 bits
Bits/(Pixel*Frame)          : 0.252
Stream size                 : 42.7 GiB (83%)
Language                    : English
Default                     : Yes
Forced                      : No
Color range                 : Limited
Color primaries             : BT.2020
Transfer characteristics    : PQ
Matrix coefficients         : BT.2020 non-constant
Mastering display color pri : Display P3
Mastering display luminance : min: 0.0050 cd/m2, max: 4000 cd/m2
Maximum Content Light Level : 992 cd/m2
Maximum Frame-Average Light : 120 cd/m2
Audio #1
ID                          : 2
Format                      : AC-3
Format/Info                 : Audio Coding 3
Commercial name             : Dolby Digital
Codec ID                    : A_AC3
Duration                    : 2 h 1 min
Bit rate mode               : Constant
Bit rate                    : 192 kb/s
Channel(s)                  : 2 channels
Channel layout              : L R
Sampling rate               : 48.0 kHz
Frame rate                  : 31.250 FPS (1536 SPF)
Bit depth                   : 16 bits
Compression mode            : Lossy
Stream size                 : 167 MiB (0%)
Title                       : Dub [Online Cin.]
Language                    : Russian
Service kind                : Complete Main
Default                     : Yes
Forced                      : Yes
Audio #2
ID                          : 3
Format                      : AC-3
Format/Info                 : Audio Coding 3
Commercial name             : Dolby Digital
Codec ID                    : A_AC3
Duration                    : 2 h 1 min
Bit rate mode               : Constant
Bit rate                    : 192 kb/s
Channel(s)                  : 2 channels
Channel layout              : L R
Sampling rate               : 48.0 kHz
Frame rate                  : 31.250 FPS (1536 SPF)
Bit depth                   : 16 bits
Compression mode            : Lossy
Stream size                 : 167 MiB (0%)
Title                       : MVO [HDRezka Studio]
Language                    : Russian
Service kind                : Complete Main
Default                     : No
Forced                      : No
Audio #3
ID                          : 4
Format                      : DTS XLL
Format/Info                 : Digital Theater Systems
Commercial name             : DTS-HD Master Audio
Codec ID                    : A_DTS
Duration                    : 2 h 1 min
Bit rate mode               : Variable
Bit rate                    : 5 179 kb/s
Channel(s)                  : 8 channels
Channel layout              : C L R LFE Lb Rb Lss Rss
Sampling rate               : 48.0 kHz
Frame rate                  : 93.750 FPS (512 SPF)
Bit depth                   : 24 bits
Compression mode            : Lossless
Stream size                 : 4.41 GiB (9%)
Title                       : AVO [Chadov]
Language                    : Russian
Default                     : No
Forced                      : No
Audio #4
ID                          : 5
Format                      : AC-3
Format/Info                 : Audio Coding 3
Commercial name             : Dolby Digital
Codec ID                    : A_AC3
Duration                    : 2 h 1 min
Bit rate mode               : Constant
Bit rate                    : 192 kb/s
Channel(s)                  : 2 channels
Channel layout              : L R
Sampling rate               : 48.0 kHz
Frame rate                  : 31.250 FPS (1536 SPF)
Bit depth                   : 16 bits
Compression mode            : Lossy
Stream size                 : 167 MiB (0%)
Title                       : Dub [Postmodern Line]
Language                    : Ukrainian
Service kind                : Complete Main
Default                     : No
Forced                      : No
Audio #5
ID                          : 6
Format                      : MLP FBA 16-ch
Format/Info                 : Meridian Lossless Packing FBA with 16-channel presentation
Commercial name             : Dolby TrueHD with Dolby Atmos
Codec ID                    : A_TRUEHD
Duration                    : 2 h 1 min
Bit rate mode               : Variable
Bit rate                    : 3 819 kb/s
Maximum bit rate            : 7 158 kb/s
Channel(s)                  : 8 channels
Channel layout              : L R C LFE Ls Rs Lb Rb
Sampling rate               : 48.0 kHz
Frame rate                  : 1 200.000 FPS (40 SPF)
Compression mode            : Lossless
Stream size                 : 3.25 GiB (6%)
Title                       : Original
Language                    : English
Default                     : No
Forced                      : No
Number of dynamic objects   : 15
Bed channel count           : 1 channel
Bed channel configuration   : LFE
Audio #6
ID                          : 7
Format                      : AC-3
Format/Info                 : Audio Coding 3
Commercial name             : Dolby Digital
Codec ID                    : A_AC3
Duration                    : 2 h 1 min
Bit rate mode               : Constant
Bit rate                    : 640 kb/s
Channel(s)                  : 6 channels
Channel layout              : L R C LFE Ls Rs
Sampling rate               : 48.0 kHz
Frame rate                  : 31.250 FPS (1536 SPF)
Bit depth                   : 16 bits
Compression mode            : Lossy
Stream size                 : 558 MiB (1%)
Language                    : English
Service kind                : Complete Main
Default                     : No
Forced                      : No
Text #1
ID                          : 8
Format                      : UTF-8
Codec ID                    : S_TEXT/UTF8
Codec ID/Info               : UTF-8 Plain Text
Duration                    : 1 h 54 min
Bit rate                    : 8 b/s
Count of elements           : 101
Stream size                 : 7.51 KiB (0%)
Title                       : Forced [Enigma]
Language                    : Russian
Default                     : Yes
Forced                      : Yes
Text #2
ID                          : 9
Format                      : UTF-8
Codec ID                    : S_TEXT/UTF8
Codec ID/Info               : UTF-8 Plain Text
Duration                    : 1 h 55 min
Bit rate                    : 79 b/s
Count of elements           : 1221
Stream size                 : 67.5 KiB (0%)
Title                       : Full [Enigma]
Language                    : Russian
Default                     : No
Forced                      : No
Text #3
ID                          : 10
Format                      : UTF-8
Codec ID                    : S_TEXT/UTF8
Codec ID/Info               : UTF-8 Plain Text
Duration                    : 1 h 57 min
Bit rate                    : 75 b/s
Count of elements           : 1108
Stream size                 : 64.8 KiB (0%)
Title                       : Full [iTunes]
Language                    : English
Default                     : No
Forced                      : No
Text #4
ID                          : 11
Format                      : UTF-8
Codec ID                    : S_TEXT/UTF8
Codec ID/Info               : UTF-8 Plain Text
Duration                    : 1 h 54 min
Bit rate                    : 44 b/s
Count of elements           : 1326
Stream size                 : 36.9 KiB (0%)
Title                       : Full
Language                    : English
Default                     : No
Forced                      : No
Text #5
ID                          : 12
Format                      : UTF-8
Codec ID                    : S_TEXT/UTF8
Codec ID/Info               : UTF-8 Plain Text
Duration                    : 1 h 58 min
Bit rate                    : 55 b/s
Count of elements           : 1735
Stream size                 : 47.9 KiB (0%)
Title                       : SDH
Language                    : English
Default                     : No
Forced                      : No
Menu
00:00:01.700                : en:Studio Logo
00:00:15.700                : en:Makeup
00:01:32.700                : en:Broken Sign
00:03:43.700                : en:Therapy
00:07:42.700                : en:Bus
00:09:15.700                : en:Meeting Murray
00:15:21.700                : en:Protection
00:19:13.700                : en:Enter Sophie
00:21:01.700                : en:Bath
00:23:34.700                : en:Following
00:24:53.700                : en:Comedy Scout
00:26:01.700                : en:Invite
00:27:59.700                : en:Hospital Gig
00:29:23.700                : en:Subway Scuffle
00:34:10.700                : en:Fleeing
00:36:14.700                : en:First Kiss
00:36:46.700                : en:Punching Out
00:38:14.700                : en:Wayne Interview
00:39:56.700                : en:Negative Thoughts
00:42:14.700                : en:Open Mic
00:45:15.700                : en:Date
00:46:21.700                : en:Letter to Wayne
00:50:23.700                : en:Clipping
00:51:12.700                : en:Wayne Manor
00:55:16.700                : en:Emergency
00:56:19.700                : en:Detectives
00:58:32.700                : en:Arthur on T.V.
01:01:01.700                : en:Protest Coverage
01:02:18.700                : en:Meeting Wayne
01:07:11.700                : en:Invitation
01:09:36.700                : en:Arkham
01:13:26.700                : en:Penny's File
01:15:41.700                : en:Sophie's Place
01:19:49.700                : en:Life's a Comedy
01:22:12.700                : en:Practice
01:24:28.700                : en:Randall and Gary visit Arthur
01:30:15.700                : en:Stairwell Waltz
01:34:51.700                : en:Dressing Room
01:37:02.700                : en:Arthur's Big Moment
01:46:35.700                : en:Riot
01:49:05.700                : en:Crime Alley
01:50:02.700                : en:Joker's Fans
01:52:33.700                : en:Thinking of a Joke
01:55:39.700                : en:End Credits

RAW Paste Data

General
Unique ID                   : 327815016536139310489992903162363755621 (0xF69EE02B092C9C81848A9066DFD1BC65)
Complete name               : F:\Video111\Joker.2019.D.MVO.AVO.BDREMUX.2160p.HDR.seleZen.mkv
Format                      : Matroska
Format version              : Version 4
File size                   : 51.5 GiB
Duration                    : 2 h 1 min
Overall bit rate mode       : Variable
Overall bit rate            : 60.5 Mb/s
Movie name                  : Joker 2019 from селезень
Encoded date                : UTC 2019-12-21 11:57:48
Writing application         : mkvmerge v40.0.0 ('Old Town Road + Pony') 64-bit
Writing library             : libebml v1.3.9 + libmatroska v1.5.2
Video
ID                          : 1
Format                      : HEVC
Format/Info                 : High Efficiency Video Coding
Format profile              : Main 10@L5.1@High
HDR format                  : SMPTE ST 2086, HDR10 compatible
Codec ID                    : V_MPEGH/ISO/HEVC
Duration                    : 2 h 1 min
Bit rate                    : 50.2 Mb/s
Width                       : 3 840 pixels
Height                      : 2 160 pixels
Display aspect ratio        : 16:9
Frame rate mode             : Constant
Frame rate                  : 23.976 (24000/1001) FPS
Color space                 : YUV
Chroma subsampling          : 4:2:0 (Type 2)
Bit depth                   : 10 bits
Bits/(Pixel*Frame)          : 0.252
Stream size                 : 42.7 GiB (83%)
Language                    : English
Default                     : Yes
Forced                      : No
Color range                 : Limited
Color primaries             : BT.2020
Transfer characteristics    : PQ
Matrix coefficients         : BT.2020 non-constant
Mastering display color pri : Display P3
Mastering display luminance : min: 0.0050 cd/m2, max: 4000 cd/m2
Maximum Content Light Level : 992 cd/m2
Maximum Frame-Average Light : 120 cd/m2
Audio #1
ID                          : 2
Format                      : AC-3
Format/Info                 : Audio Coding 3
Commercial name             : Dolby Digital
Codec ID                    : A_AC3
Duration                    : 2 h 1 min
Bit rate mode               : Constant
Bit rate                    : 192 kb/s
Channel(s)                  : 2 channels
Channel layout              : L R
Sampling rate               : 48.0 kHz
Frame rate                  : 31.250 FPS (1536 SPF)
Bit depth                   : 16 bits
Compression mode            : Lossy
Stream size                 : 167 MiB (0%)
Title                       : Dub [Online Cin.]
Language                    : Russian
Service kind                : Complete Main
Default                     : Yes
Forced                      : Yes
Audio #2
ID                          : 3
Format                      : AC-3
Format/Info                 : Audio Coding 3
Commercial name             : Dolby Digital
Codec ID                    : A_AC3
Duration                    : 2 h 1 min
Bit rate mode               : Constant
Bit rate                    : 192 kb/s
Channel(s)                  : 2 channels
Channel layout              : L R
Sampling rate               : 48.0 kHz
Frame rate                  : 31.250 FPS (1536 SPF)
Bit depth                   : 16 bits
Compression mode            : Lossy
Stream size                 : 167 MiB (0%)
Title                       : MVO [HDRezka Studio]
Language                    : Russian
Service kind                : Complete Main
Default                     : No
Forced                      : No
Audio #3
ID                          : 4
Format                      : DTS XLL
Format/Info                 : Digital Theater Systems
Commercial name             : DTS-HD Master Audio
Codec ID                    : A_DTS
Duration                    : 2 h 1 min
Bit rate mode               : Variable
Bit rate                    : 5 179 kb/s
Channel(s)                  : 8 channels
Channel layout              : C L R LFE Lb Rb Lss Rss
Sampling rate               : 48.0 kHz
Frame rate                  : 93.750 FPS (512 SPF)
Bit depth                   : 24 bits
Compression mode            : Lossless
Stream size                 : 4.41 GiB (9%)
Title                       : AVO [Chadov]
Language                    : Russian
Default                     : No
Forced                      : No
Audio #4
ID                          : 5
Format                      : AC-3
Format/Info                 : Audio Coding 3
Commercial name             : Dolby Digital
Codec ID                    : A_AC3
Duration                    : 2 h 1 min
Bit rate mode               : Constant
Bit rate                    : 192 kb/s
Channel(s)                  : 2 channels
Channel layout              : L R
Sampling rate               : 48.0 kHz
Frame rate                  : 31.250 FPS (1536 SPF)
Bit depth                   : 16 bits
Compression mode            : Lossy
Stream size                 : 167 MiB (0%)
Title                       : Dub [Postmodern Line]
Language                    : Ukrainian
Service kind                : Complete Main
Default                     : No
Forced                      : No
Audio #5
ID                          : 6
Format                      : MLP FBA 16-ch
Format/Info                 : Meridian Lossless Packing FBA with 16-channel presentation
Commercial name             : Dolby TrueHD with Dolby Atmos
Codec ID                    : A_TRUEHD
Duration                    : 2 h 1 min
Bit rate mode               : Variable
Bit rate                    : 3 819 kb/s
Maximum bit rate            : 7 158 kb/s
Channel(s)                  : 8 channels
Channel layout              : L R C LFE Ls Rs Lb Rb
Sampling rate               : 48.0 kHz
Frame rate                  : 1 200.000 FPS (40 SPF)
Compression mode            : Lossless
Stream size                 : 3.25 GiB (6%)
Title                       : Original
Language                    : English
Default                     : No
Forced                      : No
Number of dynamic objects   : 15
Bed channel count           : 1 channel
Bed channel configuration   : LFE
Audio #6
ID                          : 7
Format                      : AC-3
Format/Info                 : Audio Coding 3
Commercial name             : Dolby Digital
Codec ID                    : A_AC3
Duration                    : 2 h 1 min
Bit rate mode               : Constant
Bit rate                    : 640 kb/s
Channel(s)                  : 6 channels
Channel layout              : L R C LFE Ls Rs
Sampling rate               : 48.0 kHz
Frame rate                  : 31.250 FPS (1536 SPF)
Bit depth                   : 16 bits
Compression mode            : Lossy
Stream size                 : 558 MiB (1%)
Language                    : English
Service kind                : Complete Main
Default                     : No
Forced                      : No
Text #1
ID                          : 8
Format                      : UTF-8
Codec ID                    : S_TEXT/UTF8
Codec ID/Info               : UTF-8 Plain Text
Duration                    : 1 h 54 min
Bit rate                    : 8 b/s
Count of elements           : 101
Stream size                 : 7.51 KiB (0%)
Title                       : Forced [Enigma]
Language                    : Russian
Default                     : Yes
Forced                      : Yes
Text #2
ID                          : 9
Format                      : UTF-8
Codec ID                    : S_TEXT/UTF8
Codec ID/Info               : UTF-8 Plain Text
Duration                    : 1 h 55 min
Bit rate                    : 79 b/s
Count of elements           : 1221
Stream size                 : 67.5 KiB (0%)
Title                       : Full [Enigma]
Language                    : Russian
Default                     : No
Forced                      : No
Text #3
ID                          : 10
Format                      : UTF-8
Codec ID                    : S_TEXT/UTF8
Codec ID/Info               : UTF-8 Plain Text
Duration                    : 1 h 57 min
Bit rate                    : 75 b/s
Count of elements           : 1108
Stream size                 : 64.8 KiB (0%)
Title                       : Full [iTunes]
Language                    : English
Default                     : No
Forced                      : No
Text #4
ID                          : 11
Format                      : UTF-8
Codec ID                    : S_TEXT/UTF8
Codec ID/Info               : UTF-8 Plain Text
Duration                    : 1 h 54 min
Bit rate                    : 44 b/s
Count of elements           : 1326
Stream size                 : 36.9 KiB (0%)
Title                       : Full
Language                    : English
Default                     : No
Forced                      : No
Text #5
ID                          : 12
Format                      : UTF-8
Codec ID                    : S_TEXT/UTF8
Codec ID/Info               : UTF-8 Plain Text
Duration                    : 1 h 58 min
Bit rate                    : 55 b/s
Count of elements           : 1735
Stream size                 : 47.9 KiB (0%)
Title                       : SDH
Language                    : English
Default                     : No
Forced                      : No
Menu
00:00:01.700                : en:Studio Logo
00:00:15.700                : en:Makeup
00:01:32.700                : en:Broken Sign
00:03:43.700                : en:Therapy
00:07:42.700                : en:Bus
00:09:15.700                : en:Meeting Murray
00:15:21.700                : en:Protection
00:19:13.700                : en:Enter Sophie
00:21:01.700                : en:Bath
00:23:34.700                : en:Following
00:24:53.700                : en:Comedy Scout
00:26:01.700                : en:Invite
00:27:59.700                : en:Hospital Gig
00:29:23.700                : en:Subway Scuffle
00:34:10.700                : en:Fleeing
00:36:14.700                : en:First Kiss
00:36:46.700                : en:Punching Out
00:38:14.700                : en:Wayne Interview
00:39:56.700                : en:Negative Thoughts
00:42:14.700                : en:Open Mic
00:45:15.700                : en:Date
00:46:21.700                : en:Letter to Wayne
00:50:23.700                : en:Clipping
00:51:12.700                : en:Wayne Manor
00:55:16.700                : en:Emergency
00:56:19.700                : en:Detectives
00:58:32.700                : en:Arthur on T.V.
01:01:01.700                : en:Protest Coverage
01:02:18.700                : en:Meeting Wayne
01:07:11.700                : en:Invitation
01:09:36.700                : en:Arkham
01:13:26.700                : en:Penny's File
01:15:41.700                : en:Sophie's Place
01:19:49.700                : en:Life's a Comedy
01:22:12.700                : en:Practice
01:24:28.700                : en:Randall and Gary visit Arthur
01:30:15.700                : en:Stairwell Waltz
01:34:51.700                : en:Dressing Room
01:37:02.700                : en:Arthur's Big Moment
01:46:35.700                : en:Riot
01:49:05.700                : en:Crime Alley
01:50:02.700                : en:Joker's Fans
01:52:33.700                : en:Thinking of a Joke
01:55:39.700                : en:End Credits

Скриншоты

[Цитировать]



Показать сообщения:    

Текущее время: 22-Фев 18:21

Часовой пояс: UTC + 6


Вы не можете начинать темы
Вы не можете отвечать на сообщения
Вы не можете редактировать свои сообщения
Вы не можете удалять свои сообщения
Вы не можете голосовать в опросах
Вы не можете прикреплять файлы к сообщениям
Вы не можете скачивать файлы

!ВНИМАНИЕ!
Сайт не предоставляет электронные версии произведений, а занимается лишь коллекционированием и каталогизацией ссылок, присылаемых и публикуемых на форуме нашими читателями. Если вы являетесь правообладателем какого-либо представленного материала и не желаете, чтобы ссылка на него находилась в нашем каталоге, свяжитесь с нами, и мы незамедлительно удалим ее. Файлы для обмена на трекере предоставлены пользователями сайта, и администрация не несет ответственности за их содержание. Просьба не заливать файлы, защищенные авторскими правами, а также файлы нелегального содержания!