***Уважаемые пользователи и гости !!! Сайт переехал на новый домен Torrents-club.info. Просьба изменить ваши закладки! ***
 
[ Сегодня идет свободное скачивание без начисления Download ]


Статистика раздачи
Нет
 
   
 
 
 
 
Форсаж 9 / F9 (2021) [4K, HEVC, HDR, Dolby Vision / Blu-Ray Remux] (2160p) Год выпуска: 2021
Жанр: Боевик, триллер, криминал, приключения
Выпущено: США, Таиланд, Канада, One Race Films, Roth/Kirschenbaum Films, Perfect Storm Entertainment
Режиссер: Джастин Лин
Продолжительность: 02:22:52
Перевод: Дублированный, любительский двухголосый
Субтитры: Русские, английские
Возраст 12+

В ролях:
Вин Дизель, Джон Сина, Тайриз Гибсон, Лудакрис, Джордана Брюстер, Натали Эммануэль, Мишель Родригес, Хелен Миррен, Шарлиз Терон, Майкл Рукер

О фильме:
Доминик Торетто ведет спокойную жизнь вместе с Летти и своим сыном Брайаном, однако, они знают, что новая опасность всегда где-то рядом. В этот раз Доминику придется встретиться с призраками прошлого, если он хочет спасти самых близких. Команда снова собирается вместе, чтобы предотвратить дерзкий план по захвату мира, который придумал самый опасный преступник и безбашенный водитель из всех, с кем они сталкивались ранее. Ситуация усложняется тем, что этот человек — брат Доминика Джейкоб, которого много лет назад изгнали из семьи
Форсаж 9
Техданные
Качество: Blu-Ray Remux (2160p)
Видео: MPEG-H HEVC, 46.7 Мбит/с, 3840x2160, 23.976 Кадр/с, 10 Бит
Аудио: Русский (E-AC3, 6 ch, 448 Кбит/с), (AC3, 6 ch, 448 Кбит/с), английский (TrueHD, 8 ch, 3102 Кбит/с), (AC3, 6 ch, 448 Кбит/с), (AC3, 2 ch, 192 Кбит/с)

Релиз

Видео: MPEG-H HEVC Video / 46,7 Mbps / 3840x2160 / 23,976 fps / 16:9 / Main 10 @ Level 5.1 @ High / 4:2:0 / 10 bits / 1000nits / Dolby Vision FEL - HDR10+ / BT.2020
Аудио 1: Russian E-AC3 / 5.1 / 48 kHz / 448 kbps |Dub, Пифагор/Кинопоиск HD|
Аудио 2: Russian AC3 / 5.1 / 48 kHz / 448 kbps |DVO, Pazl Voice|
Аудио 3: English Dolby TrueHD/Atmos Audio / 7.1+11 objects / 48 kHz / 3102 kbps / 16-bit |original|
Аудио 4: English AC3 Core: 5.1 / 48 kHz / 448 kbps |original|
Аудио 5: English AC3 / 2.0 / 48 kHz / 192 kbps |Commentary by producer/co-writer/director Justin Lin|
Субтитры: русские (forced, full), английские (full, 2xSDH, Commentary)

MediaInfo:

Общее
Уникальный идентификатор                 : 31955887903593711968622669518674783252 (0x180A7AEA8A5288B79690E3A91A92EC14)
Полное имя                               : D:\UHD\Форсаж 9.2021.2021.UHD.Blu-Ray.Remux.2160p.mkv
Формат                                   : Matroska
Версия формата                           : Version 4
Размер файла                             : 51,3 Гбайт
Продолжительность                        : 2 ч. 22 м.
Режим общего битрейта                    : Переменный
Общий поток                              : 51,4 Мбит/сек
Дата кодирования                         : UTC 2021-09-13 18:50:43
Программа кодирования                    : mkvmerge v61.0.0 ('So') 64-bit
Библиотека кодирования                   : libebml v1.4.2 + libmatroska v1.6.4
Attachments                              : poster.jpg
Видео
Идентификатор                            : 1
Формат                                   : HEVC
Формат/Информация                        : High Efficiency Video Coding
Профиль формата                          : Main 10@L5.1@High
HDR format                               : Dolby Vision, Version 1.0, dvhe.07.06, BL+EL+RPU, Blu-ray compatible / SMPTE ST 2094 App 4, Version 1, HDR10+ Profile B compatible
Идентификатор кодека                     : V_MPEGH/ISO/HEVC
Продолжительность                        : 2 ч. 22 м.
Битрейт                                  : 46,7 Мбит/сек
Ширина                                   : 3 840 пикселей
Высота                                   : 2 160 пикселей
Соотношение сторон                       : 16:9
Режим частоты кадров                     : Постоянный
Частота кадров                           : 23,976 (24000/1001) кадра/сек
Цветовое пространство                    : YUV
Субдискретизация насыщенности            : 4:2:0 (Type 2)
Битовая глубина                          : 10 бит
Бит/(Пиксели*Кадры)                      : 0.235
Размер потока                            : 46,6 Гбайт (91%)
Default                                  : Да
Forced                                   : Нет
Цветовой диапазон                        : Limited
Основные цвета                           : BT.2020
Характеристики трансфера                 : PQ
Коэффициенты матрицы                     : BT.2020 non-constant
Mastering display color primaries        : Display P3
Mastering display luminance              : min: 0.0001 cd/m2, max: 1000 cd/m2
Maximum Content Light Level              : 1000 cd/m2
Maximum Frame-Average Light Level        : 696 cd/m2
Аудио #1
Идентификатор                            : 2
Формат                                   : E-AC-3
Формат/Информация                        : Enhanced AC-3
Коммерческое название                    : Dolby Digital Plus
Идентификатор кодека                     : A_EAC3
Продолжительность                        : 2 ч. 22 м.
Вид битрейта                             : Постоянный
Битрейт                                  : 448 Кбит/сек
Каналы                                   : 6 каналов
Channel layout                           : L R C LFE Ls Rs
Частота                                  : 48,0 КГц
Частота кадров                           : 31,250 кадров/сек (1536 SPF)
Метод сжатия                             : С потерями
Размер потока                            : 458 Мбайт (1%)
Заголовок                                : Dub, Пифагор/Кинопоиск HD
Язык                                     : Russian
Service kind                             : Complete Main
Default                                  : Да
Forced                                   : Нет
Аудио #2
Идентификатор                            : 3
Формат                                   : AC-3
Формат/Информация                        : Audio Coding 3
Коммерческое название                    : Dolby Digital
Идентификатор кодека                     : A_AC3
Продолжительность                        : 2 ч. 22 м.
Вид битрейта                             : Постоянный
Битрейт                                  : 448 Кбит/сек
Каналы                                   : 6 каналов
Channel layout                           : L R C LFE Ls Rs
Частота                                  : 48,0 КГц
Частота кадров                           : 31,250 кадров/сек (1536 SPF)
Метод сжатия                             : С потерями
Размер потока                            : 458 Мбайт (1%)
Заголовок                                : DVO, Pazl Voice
Язык                                     : Russian
Service kind                             : Complete Main
Default                                  : Нет
Forced                                   : Нет
Аудио #3
Идентификатор                            : 4
ID in the original source medium         : 4352 (0x1100)
Формат                                   : MLP FBA 16-ch
Формат/Информация                        : Meridian Lossless Packing FBA with 16-channel presentation
Коммерческое название                    : Dolby TrueHD with Dolby Atmos
Идентификатор кодека                     : A_TRUEHD
Продолжительность                        : 2 ч. 22 м.
Вид битрейта                             : Переменный
Битрейт                                  : 3 102 Кбит/сек
Максимальный битрейт                     : 4 590 Кбит/сек
Каналы                                   : 8 каналов
Channel layout                           : L R C LFE Ls Rs Lb Rb
Частота                                  : 48,0 КГц
Частота кадров                           : 1 200,000 кадров/сек (40 SPF)
Битовая глубина                          : 24 бит
Метод сжатия                             : Без потерь
Размер потока                            : 3,10 Гбайт (6%)
Язык                                     : English
Default                                  : Нет
Forced                                   : Нет
Носитель оригинала                       : Blu-ray
Number of dynamic objects                : 11
Bed channel count                        : 1 канал
Bed channel configuration                : LFE
Аудио #4
Идентификатор                            : 5
ID in the original source medium         : 4352 (0x1100)
Формат                                   : AC-3
Формат/Информация                        : Audio Coding 3
Коммерческое название                    : Dolby Digital
Идентификатор кодека                     : A_AC3
Продолжительность                        : 2 ч. 22 м.
Вид битрейта                             : Постоянный
Битрейт                                  : 448 Кбит/сек
Каналы                                   : 6 каналов
Channel layout                           : L R C LFE Ls Rs
Частота                                  : 48,0 КГц
Частота кадров                           : 31,250 кадров/сек (1536 SPF)
Метод сжатия                             : С потерями
Размер потока                            : 458 Мбайт (1%)
Язык                                     : English
Service kind                             : Complete Main
Default                                  : Нет
Forced                                   : Нет
Носитель оригинала                       : Blu-ray
Аудио #5
Идентификатор                            : 6
ID in the original source medium         : 4353 (0x1101)
Формат                                   : AC-3
Формат/Информация                        : Audio Coding 3
Коммерческое название                    : Dolby Digital
Идентификатор кодека                     : A_AC3
Продолжительность                        : 2 ч. 22 м.
Вид битрейта                             : Постоянный
Битрейт                                  : 192 Кбит/сек
Каналы                                   : 2 канала
Channel layout                           : L R
Частота                                  : 48,0 КГц
Частота кадров                           : 31,250 кадров/сек (1536 SPF)
Метод сжатия                             : С потерями
Размер потока                            : 196 Мбайт (0%)
Заголовок                                : Commentary by producer/co-writer/director Justin Lin
Язык                                     : English
Service kind                             : Complete Main
Default                                  : Нет
Forced                                   : Нет
Носитель оригинала                       : Blu-ray
Текст #1
Идентификатор                            : 7
Формат                                   : UTF-8
Идентификатор кодека                     : S_TEXT/UTF8
Идентификатор кодека/Информация          : UTF-8 Plain Text
Продолжительность                        : 1 ч. 29 м.
Битрейт                                  : 0 бит/сек
Count of elements                        : 8
Размер потока                            : 190 байт (0%)
Заголовок                                : forced
Язык                                     : Russian
Default                                  : Да
Forced                                   : Нет
Текст #2
Идентификатор                            : 8
Формат                                   : UTF-8
Идентификатор кодека                     : S_TEXT/UTF8
Идентификатор кодека/Информация          : UTF-8 Plain Text
Продолжительность                        : 2 ч. 12 м.
Битрейт                                  : 55 бит/сек
Count of elements                        : 1419
Размер потока                            : 53,2 Кбайт (0%)
Заголовок                                : full
Язык                                     : Russian
Default                                  : Нет
Forced                                   : Нет
Текст #3
Идентификатор                            : 9
Формат                                   : UTF-8
Идентификатор кодека                     : S_TEXT/UTF8
Идентификатор кодека/Информация          : UTF-8 Plain Text
Продолжительность                        : 2 ч. 16 м.
Битрейт                                  : 41 бит/сек
Count of elements                        : 1559
Размер потока                            : 42,0 Кбайт (0%)
Заголовок                                : full
Язык                                     : English
Default                                  : Нет
Forced                                   : Нет
Текст #4
Идентификатор                            : 10
Формат                                   : UTF-8
Идентификатор кодека                     : S_TEXT/UTF8
Идентификатор кодека/Информация          : UTF-8 Plain Text
Продолжительность                        : 2 ч. 22 м.
Битрейт                                  : 55 бит/сек
Count of elements                        : 2113
Размер потока                            : 57,6 Кбайт (0%)
Заголовок                                : SDH #1
Язык                                     : English
Default                                  : Нет
Forced                                   : Нет
Текст #5
Идентификатор                            : 11
Формат                                   : UTF-8
Идентификатор кодека                     : S_TEXT/UTF8
Идентификатор кодека/Информация          : UTF-8 Plain Text
Продолжительность                        : 2 ч. 15 м.
Битрейт                                  : 54 бит/сек
Count of elements                        : 1918
Размер потока                            : 54,1 Кбайт (0%)
Заголовок                                : SDH #2
Язык                                     : English
Default                                  : Нет
Forced                                   : Нет
Текст #6
Идентификатор                            : 12
Формат                                   : UTF-8
Идентификатор кодека                     : S_TEXT/UTF8
Идентификатор кодека/Информация          : UTF-8 Plain Text
Продолжительность                        : 2 ч. 13 м.
Битрейт                                  : 111 бит/сек
Count of elements                        : 2149
Размер потока                            : 110 Кбайт (0%)
Заголовок                                : Commentary by producer/co-writer/director Justin Lin
Язык                                     : English
Default                                  : Нет
Forced                                   : Нет
Меню
00:00:00.000                             : Chapter 01
00:04:47.578                             : Chapter 02
00:11:11.003                             : Chapter 03
00:20:36.568                             : Chapter 04
00:25:26.566                             : Chapter 05
00:30:26.533                             : Chapter 06
00:34:19.724                             : Chapter 07
00:42:13.405                             : Chapter 08
00:49:39.768                             : Chapter 09
00:55:46.343                             : Chapter 10
00:59:57.969                             : Chapter 11
01:07:58.866                             : Chapter 12
01:19:29.514                             : Chapter 13
01:28:47.113                             : Chapter 14
01:34:53.437                             : Chapter 15
01:40:27.688                             : Chapter 16
01:50:56.524                             : Chapter 17
02:01:02.880                             : Chapter 18
02:05:22.264                             : Chapter 19
02:10:17.726                             : Chapter 20

Скриншоты

[Цитировать]



Показать сообщения:    

Текущее время: 20-Сен 02:49

Часовой пояс: UTC + 6


Вы не можете начинать темы
Вы не можете отвечать на сообщения
Вы не можете редактировать свои сообщения
Вы не можете удалять свои сообщения
Вы не можете голосовать в опросах
Вы не можете прикреплять файлы к сообщениям
Вы не можете скачивать файлы

!ВНИМАНИЕ!
Сайт не предоставляет электронные версии произведений, а занимается лишь коллекционированием и каталогизацией ссылок, присылаемых и публикуемых на форуме нашими читателями. Если вы являетесь правообладателем какого-либо представленного материала и не желаете, чтобы ссылка на него находилась в нашем каталоге, свяжитесь с нами, и мы незамедлительно удалим ее. Файлы для обмена на трекере предоставлены пользователями сайта, и администрация не несет ответственности за их содержание. Просьба не заливать файлы, защищенные авторскими правами, а также файлы нелегального содержания!