***Уважаемые пользователи и гости !!! Сайт переехал на новый домен Torrents-club.info. Просьба изменить ваши закладки! ***
 
[ Сегодня идет свободное скачивание без начисления Download ]


Статистика раздачи
Нет
 
   
 
 
 
Чёрная кошка 3: В тюрьме / Black Cat in Jail / Ngo joi gaam yuk dik yat ji Страна: Гонконг
Год выпуска: 2000
Жанр: боевик, драма
Продолжительность: 01:27:59
Режиссер: Энди ЭнДжи / Andy Ng
В ролях: Стефен Ау, Си Мэн Хуи, Катрин Ян Хунг, Фу-Кеунг Конг, Сиу Гуань Лау, Джейд Люн, Тереза Мак
Описание: Чёрная Кошка по-прежнему работает наемной убийцей, но её очередное дело идет не так, как задумывалось. На пути девушки оказывается ребёнок, поэтому жертва убегает, а сама Чёрная Кошка - попадает в руки полиции и оказывается приговоренной к пожизненному сроку в женской колонии...

Перевод: Любительский (одноголосый, закадровый) | Прокс
Субтитры: нет-Качество: DVDRip
Формат: AVI
Видео кодек: XviD
Аудио кодек: АС3
Видео: 672x384 (16:9), 23.976 fps, XviD ~2 019 kbps avg
Аудио: 48.0 kHz, AC3 Dolby Digital, 2/0 (L,R) ch, ~192 kbps
Дата премьеры (мир): 20 января 2000

Media Info

General
Complete name : Черная кошка в тюрьме (боевик, кримнал 2000 год).avi
Format : AVI
Format/Info : Audio Video Interleave
File size : 1.36 GiB
Duration : 1 h 27 min
Overall bit rate : 2 220 kb/s
Writing application : VirtualDubMod 1.5.10.2 (build 2540/release)
Writing library : VirtualDubMod build 2540/release
Video
ID : 0
Format : MPEG-4 Visual
Format profile : Advanced Simple@L5
Format settings, BVOP : 2
Format settings, QPel : No
Format settings, GMC : No warppoints
Format settings, Matrix : Custom
Codec ID : XVID
Codec ID/Hint : XviD
Duration : 1 h 27 min
Bit rate : 2 019 kb/s
Width : 672 pixels
Height : 384 pixels
Display aspect ratio : 16:9
Frame rate : 23.976 (24000/1001) FPS
Color space : YUV
Chroma subsampling : 4:2:0
Bit depth : 8 bits
Scan type : Progressive
Compression mode : Lossy
Bits/(Pixel*Frame) : 0.326
Stream size : 1.24 GiB (91%)
Writing library : XviD 73
Audio
ID : 1
Format : AC-3
Format/Info : Audio Coding 3
Format settings, Endianness : Big
Codec ID : 2000
Duration : 1 h 27 min
Bit rate mode : Constant
Bit rate : 192 kb/s
Channel(s) : 2 channels
Channel positions : Front: L R
Sampling rate : 48.0 kHz
Frame rate : 31.250 FPS (1536 SPF)
Bit depth : 16 bits
Compression mode : Lossy
Stream size : 121 MiB (9%)
Alignment : Split accross interleaves
Interleave, duration : 42 ms (1.00 video frame)
Interleave, preload duration : 500 ms
Service kind : Complete Main

Скриншоты

[Цитировать]



Показать сообщения:    

Текущее время: 30-Ноя 18:59

Часовой пояс: UTC + 6


Вы не можете начинать темы
Вы не можете отвечать на сообщения
Вы не можете редактировать свои сообщения
Вы не можете удалять свои сообщения
Вы не можете голосовать в опросах
Вы не можете прикреплять файлы к сообщениям
Вы не можете скачивать файлы

!ВНИМАНИЕ!
Сайт не предоставляет электронные версии произведений, а занимается лишь коллекционированием и каталогизацией ссылок, присылаемых и публикуемых на форуме нашими читателями. Если вы являетесь правообладателем какого-либо представленного материала и не желаете, чтобы ссылка на него находилась в нашем каталоге, свяжитесь с нами, и мы незамедлительно удалим ее. Файлы для обмена на трекере предоставлены пользователями сайта, и администрация не несет ответственности за их содержание. Просьба не заливать файлы, защищенные авторскими правами, а также файлы нелегального содержания!