***Уважаемые пользователи и гости !!! Сайт переехал на новый домен Torrents-club.info. Просьба изменить ваши закладки! ***
 
[ Сегодня идет свободное скачивание без начисления Download ]


Статистика раздачи
Скачал: [ 3 ]
 
   
 
 
 
 
Позывные / A Call to Spy Информация о фильме
Название: Позывные
Оригинальное название: A Call to Spy
Год выхода: 2019
Жанр: Триллер, драма, военный, биография
Режиссер: Лидия Дин Пилчер
В ролях: Сара Меган Томас, Стана Катик, Радхика Апте, Лайнас Роуч, Россиф Сазерленд, Сэмюэл Рукин, Эндрю Ричардсон, Лайла Робинс, Марк Риссман, Матильда Олливье

В начале Второй мировой войны Уинстон Черчилль создаёт новую специальную службу – УСО, где вербуют и обучают женщин-шпионов.

Страна: США
Студия: SMT Pictures
Продолжительность: 02:04:23
Перевод: Профессиональный (многоголосый, закадровый) FocusX
Файл
Кодек: H.264
Качество: BDRip 720p
Видео: 1280x690 (1.85:1), 6617 kbps, 23.976 fps
Звук: Русский (AC-3, 6ch, 640 kbps)
Английский (AC3, 6ch, 640 kbps)
Субтитры: Английские

MI

x264 [info]: frame I:1132 Avg QP:16.42 size:128130
x264 [info]: frame P:35522 Avg QP:17.85 size: 55871
x264 [info]: frame B:142266 Avg QP:19.39 size: 28414
x264 [info]: consecutive B-frames: 2.9% 1.3% 5.7% 5.4% 11.1% 57.2% 5.3% 1.1% 3.1% 2.2% 2.6% 2.1%
General
Unique ID : 228644231523078348589334237778847955326 (0xAC0346F73EE83A6E120DD26CB753797E)
Complete name : E:КИНОРУТОРПозывные.mkv
Format : Matroska
Format version : Version 4
File size : 6.86 GiB
Duration : 2 h 4 min
Overall bit rate : 7 898 kb/s
Movie name : Позывные / A Call to Spy (2019) - #LORDKILL#
Encoded date : UTC 2021-05-01 05:08:19
Writing application : mkvmerge v32.0.0 ('Astral Progressions') 64-bit
Writing library : libebml v1.3.7 + libmatroska v1.5.0
Video
ID : 1
Format : AVC
Format/Info : Advanced Video Codec
Format profile : High@L4.1
Format settings : CABAC / 9 Ref Frames
Format settings, CABAC : Yes
Format settings, Reference : 9 frames
Codec ID : V_MPEG4/ISO/AVC
Duration : 2 h 4 min
Bit rate : 6 617 kb/s
Width : 1 280 pixels
Height : 690 pixels
Display aspect ratio : 1.85:1
Frame rate mode : Constant
Frame rate : 23.976 (24000/1001) FPS
Color space : YUV
Chroma subsampling : 4:2:0
Bit depth : 8 bits
Scan type : Progressive
Bits/(Pixel*Frame) : 0.312
Stream size : 5.75 GiB (84%)
Writing library : x264 core 159 r2991 1771b55
Encoding settings : cabac=1 / ref=9 / deblock=1:-3:-3 / analyse=0x3:0x113 / me=umh / subme=10 / psy=1 / psy_rd=1.00:0.20 / mixed_ref=1 / me_range=32 / chroma_me=1 / trellis=2 / 8x8dct=1 / cqm=0 / deadzone=21,11 / fast_pskip=0 / chroma_qp_offset=-3 / threads=22 / lookahead_threads=5 / sliced_threads=0 / nr=0 / decimate=1 / interlaced=0 / bluray_compat=0 / constrained_intra=0 / bframes=11 / b_pyramid=2 / b_adapt=2 / b_bias=0 / direct=1 / weightb=1 / open_gop=0 / weightp=2 / keyint=240 / keyint_min=23 / scenecut=40 / intra_refresh=0 / rc=crf / mbtree=0 / crf=19.5 / qcomp=0.60 / qpmin=0 / qpmax=69 / qpstep=4 / ip_ratio=1.40 / pb_ratio=1.30 / aq=1:1.00
Default : Yes
Forced : No
Audio #1
ID : 2
Format : AC-3
Format/Info : Audio Coding 3
Commercial name : Dolby Digital
Codec ID : A_AC3
Duration : 2 h 4 min
Bit rate mode : Constant
Bit rate : 640 kb/s
Channel(s) : 6 channels
Channel layout : L R C LFE Ls Rs
Sampling rate : 48.0 kHz
Frame rate : 31.250 FPS (1536 SPF)
Compression mode : Lossy
Stream size : 569 MiB (8%)
Title : MVO (FocusX)
Language : Russian
Service kind : Complete Main
Default : Yes
Forced : No
Audio #2
ID : 3
Format : AC-3
Format/Info : Audio Coding 3
Commercial name : Dolby Digital
Codec ID : A_AC3
Duration : 2 h 4 min
Bit rate mode : Constant
Bit rate : 640 kb/s
Channel(s) : 6 channels
Channel layout : L R C LFE Ls Rs
Sampling rate : 48.0 kHz
Frame rate : 31.250 FPS (1536 SPF)
Compression mode : Lossy
Stream size : 569 MiB (8%)
Language : English
Service kind : Complete Main
Default : No
Forced : No
Text
ID : 4
Format : UTF-8
Codec ID : S_TEXT/UTF8
Codec ID/Info : UTF-8 Plain Text
Duration : 1 h 57 min
Bit rate : 46 b/s
Count of elements : 1490
Stream size : 40.1 KiB (0%)
Language : English
Default : Yes
Forced : No

Скриншоты


[Цитировать]



Показать сообщения:    

Текущее время: 03-Авг 09:53

Часовой пояс: UTC + 6


Вы не можете начинать темы
Вы не можете отвечать на сообщения
Вы не можете редактировать свои сообщения
Вы не можете удалять свои сообщения
Вы не можете голосовать в опросах
Вы не можете прикреплять файлы к сообщениям
Вы не можете скачивать файлы

!ВНИМАНИЕ!
Сайт не предоставляет электронные версии произведений, а занимается лишь коллекционированием и каталогизацией ссылок, присылаемых и публикуемых на форуме нашими читателями. Если вы являетесь правообладателем какого-либо представленного материала и не желаете, чтобы ссылка на него находилась в нашем каталоге, свяжитесь с нами, и мы незамедлительно удалим ее. Файлы для обмена на трекере предоставлены пользователями сайта, и администрация не несет ответственности за их содержание. Просьба не заливать файлы, защищенные авторскими правами, а также файлы нелегального содержания!