***Уважаемые пользователи и гости !!! Сайт переехал на новый домен Torrents-club.info. Просьба изменить ваши закладки! ***
 
[ Сегодня идет свободное скачивание без начисления Download ]


Статистика раздачи
Скачал: [ 3 ]
 
   
 
 
 
 
Несломленная / Опустошение / Ravage / Swing Low (2019) BDRip [H.265/1080p]
- Производство: США / Cold Beer Friday, Galvanized Films
Жанр: Ужасы, триллер
Режиссер: Тедди Греннан
Актеры: Аннабелль Декстер-Джонс, Брюс Дерн, Роберт Лонгстрит, Майкл Уивер, Росс Патридж, Кристофер Пинкалла, Эрик Нелсен, Дрэйк Шеннон, Джошуа Брэйди, Беннетт Кришок
Описание:
Фотограф-натуралист Харпер становится свидетельницей какого-то странного жестокого обряда. Повинуясь журналистскому инстинкту, она пытается зафиксировать все на камеру и докладывает местному шерифу, однако ее показания принимают за банальный кошмар. На обратном пути ее похищают и увозят на заброшенную ферму, и ей придется использовать все приобретенные за время работы в лесу навыки выживания, чтобы спастись.

Возраст: 18+ (зрителям, достигшим 18 лет. запрещено для детей)
Рейтинг MPAA: этот продукт не был классифицирован
Дата мировой премьеры: 30 августа 2019
Дата российской премьеры: 19 августа 2021, «Веста»
Релиз от: mikos
Продолжительность: 01:24:24
Качество видео: BDRip 1080p (10-bit)
Перевод: Дублированный (iTunes)
Язык озвучки: Русский, английский
Субтитры: Отсутствуют
Видео: HEVC/H.265, 1920x804, ~6929 kbps, 23.976 fps
Аудио 1: AC3, 6 ch, 384 kbps - Русский (DUB, iTunes)
Аудио 2: DTS, 6 ch, 1509 kbps - Английский

MediaInfo:

x265 info: frame I: 1063, Avg QP:16.65 kb/s: 19940.39
x265 info: frame P: 27679, Avg QP:18.23 kb/s: 11618.51
x265 info: frame B: 92306, Avg QP:20.23 kb/s: 5372.32
x265 info: Weighted P-Frames: Y:7.8% UV:6.7%
x265 info: consecutive B-frames: 11.4% 8.9% 10.9% 28.6% 11.1% 20.8% 4.7% 2.1% 0.7% 0.3% 0.1% 0.1% 0.1% 0.0% 0.1%
------------------------------------------------------------------------------------------------------------------
General
Unique ID : 112687111258089482364191172728174289608 (0x54C6BF898031A39C0B96AFFB0E0222C8)
Complete name : D:\Торрент\Ravage.2019.BDRip.1080p.HEVC.10bit.DUB.mikos.mkv
Format : Matroska
Format version : Version 4
File size : 5.19 GiB
Duration : 1 h 24 min
Overall bit rate : 8 798 kb/s
Movie name : Ravage.2019.BDRip.1080p.HEVC.10bit.DUB.mikos
Encoded date : UTC 2021-08-23 15:28:14
Writing application : mkvmerge v60.0.0 ('Are We Copies?') 64-bit
Writing library : libebml v1.4.2 + libmatroska v1.6.4
Video
ID : 1
Format : HEVC
Format/Info : High Efficiency Video Coding
Format profile : Main 10@L4.1@High
Codec ID : V_MPEGH/ISO/HEVC
Duration : 1 h 24 min
Bit rate : 6 929 kb/s
Width : 1 920 pixels
Height : 804 pixels
Display aspect ratio : 2.40:1
Frame rate mode : Constant
Frame rate : 23.976 (24000/1001) FPS
Color space : YUV
Chroma subsampling : 4:2:0
Bit depth : 10 bits
Bits/(Pixel*Frame) : 0.187
Stream size : 4.07 GiB (79%)
Title : Rip by mikos
Writing library : x265 3.4+28-419182243:[Windows][clang 11.0.0][64 bit] 10bit
Encoding settings : cpuid=1111039 / frame-threads=3 / numa-pools=12 / wpp / no-pmode / no-pme / no-psnr / no-ssim / log-level=2 / input-csp=1 / input-res=1920x804 / interlace=0 / total-frames=0 / level-idc=41 / high-tier=1 / uhd-bd=0 / ref=5 / allow-non-conformance / no-repeat-headers / annexb / no-aud / no-hrd / info / hash=0 / no-temporal-layers / open-gop / min-keyint=23 / keyint=240 / gop-lookahead=0 / bframes=14 / b-adapt=2 / b-pyramid / bframe-bias=0 / rc-lookahead=60 / lookahead-slices=5 / scenecut=40 / hist-scenecut=0 / radl=0 / no-splice / no-intra-refresh / ctu=32 / min-cu-size=8 / no-rect / no-amp / max-tu-size=32 / tu-inter-depth=4 / tu-intra-depth=4 / limit-tu=1 / rdoq-level=2 / dynamic-rd=0.00 / no-ssim-rd / signhide / no-tskip / nr-intra=0 / nr-inter=0 / no-constrained-intra / strong-intra-smoothing / max-merge=5 / limit-refs=3 / no-limit-modes / me=3 / subme=7 / merange=57 / temporal-mvp / no-frame-dup / no-hme / weightp / no-weightb / no-analyze-src-pics / deblock=-3:-3 / no-sao / no-sao-non-deblock / rd=4 / selective-sao=0 / early-skip / no-rskip / no-fast-intra / no-tskip-fast / no-cu-lossless / b-intra / no-splitrd-skip / rdpenalty=0 / psy-rd=2.00 / psy-rdoq=1.00 / no-rd-refine / no-lossless / cbqpoffs=0 / crqpoffs=0 / rc=crf / crf=20.3 / qcomp=0.65 / qpstep=4 / stats-write=0 / stats-read=0 / vbv-maxrate=50000 / vbv-bufsize=50000 / vbv-init=0.9 / min-vbv-fullness=50.0 / max-vbv-fullness=80.0 / crf-max=27.0 / crf-min=0.0 / ipratio=1.40 / pbratio=1.30 / aq-mode=1 / aq-strength=1.00 / no-cutree / zone-count=0 / no-strict-cbr / qg-size=32 / no-rc-grain / qpmax=69 / qpmin=0 / no-const-vbv / sar=1 / overscan=0 / videoformat=5 / range=0 / colorprim=2 / transfer=2 / colormatrix=2 / chromaloc=0 / display-window=0 / cll=0,0 / min-luma=0 / max-luma=1023 / log2-max-poc-lsb=8 / vui-timing-info / vui-hrd-info / slices=1 / no-opt-qp-pps / no-opt-ref-list-length-pps / no-multi-pass-opt-rps / scenecut-bias=0.05 / hist-threshold=0.03 / no-opt-cu-delta-qp / no-aq-motion / no-hdr10 / no-hdr10-opt / no-dhdr10-opt / no-idr-recovery-sei / analysis-reuse-level=0 / analysis-save-reuse-level=0 / analysis-load-reuse-level=0 / scale-factor=0 / refine-intra=0 / refine-inter=0 / refine-mv=1 / refine-ctu-distortion=0 / no-limit-sao / ctu-info=0 / no-lowpass-dct / refine-analysis-type=0 / copy-pic=1 / max-ausize-factor=1.0 / no-dynamic-refine / no-single-sei / no-hevc-aq / no-svt / no-field / qp-adaptation-range=1.00 / no-scenecut-aware-qpconformance-window-offsets / right=0 / bottom=0 / decoder-max-rate=0 / no-vbv-live-multi-pass
Default : Yes
Forced : No
Color range : Limited
Audio #1
ID : 2
Format : AC-3
Format/Info : Audio Coding 3
Commercial name : Dolby Digital
Codec ID : A_AC3
Duration : 1 h 24 min
Bit rate mode : Constant
Bit rate : 384 kb/s
Channel(s) : 6 channels
Channel layout : L R C LFE Ls Rs
Sampling rate : 48.0 kHz
Frame rate : 31.250 FPS (1536 SPF)
Bit depth : 32 bits
Compression mode : Lossy
Stream size : 232 MiB (4%)
Title : DUB (iTunes)
Language : Russian
Service kind : Complete Main
Default : Yes
Forced : No
Audio #2
ID : 3
Format : DTS
Format/Info : Digital Theater Systems
Codec ID : A_DTS
Duration : 1 h 24 min
Bit rate mode : Constant
Bit rate : 1 509 kb/s
Channel(s) : 6 channels
Channel layout : C L R Ls Rs LFE
Sampling rate : 48.0 kHz
Frame rate : 93.750 FPS (512 SPF)
Bit depth : 16 bits
Compression mode : Lossy
Stream size : 908 MiB (17%)
Title : Original
Language : English
Default : No
Forced : No
Menu
00:00:00.000 : :Chapter 1
00:08:22.293 : :Chapter 2
00:14:56.687 : :Chapter 3
00:24:21.541 : :Chapter 4
00:29:32.936 : :Chapter 5
00:37:04.222 : :Chapter 6
00:43:51.878 : :Chapter 7
00:49:50.778 : :Chapter 8
00:59:47.291 : :Chapter 9
01:03:14.623 : :Chapter 10
01:07:10.150 : :Chapter 11
01:20:45.881 : :Chapter 12
01:24:08.000 : :Chapter 13

Скриншоты:


-

[Цитировать]



Показать сообщения:    

Текущее время: 19-Окт 08:52

Часовой пояс: UTC + 6


Вы не можете начинать темы
Вы не можете отвечать на сообщения
Вы не можете редактировать свои сообщения
Вы не можете удалять свои сообщения
Вы не можете голосовать в опросах
Вы не можете прикреплять файлы к сообщениям
Вы не можете скачивать файлы

!ВНИМАНИЕ!
Сайт не предоставляет электронные версии произведений, а занимается лишь коллекционированием и каталогизацией ссылок, присылаемых и публикуемых на форуме нашими читателями. Если вы являетесь правообладателем какого-либо представленного материала и не желаете, чтобы ссылка на него находилась в нашем каталоге, свяжитесь с нами, и мы незамедлительно удалим ее. Файлы для обмена на трекере предоставлены пользователями сайта, и администрация не несет ответственности за их содержание. Просьба не заливать файлы, защищенные авторскими правами, а также файлы нелегального содержания!