***Уважаемые пользователи и гости !!! Сайт переехал на новый домен Torrents-club.info. Просьба изменить ваши закладки! ***
 
[ Сегодня идет свободное скачивание без начисления Download ]


Статистика раздачи
Нет
 
   
 
 
 
 
Свидетель / Eye of the Beholder (1999) WEB-DL 720p Название: Свидетель
Оригинальное название: Eye of the Beholder
Год выхода: 1999
Страна: Канада, Великобритания, Австралия
Студия: Ambridge Film Partnership, Behaviour Worldwide
Продолжительность: 01:38:57
Жанр: триллер, драма, детектив, ...
Режиссер: Стефан Эллиотт
В ролях: Юэн МакГрегор, Эшли Джадд, Патрик Бергин, Женевьев Бюжо, К.Д. Лэнг, Джейсон Пристли, Энн-Мари Браун, Кэйтлин Браун, Дэвид Нермэн, Стивен МакКарти, ...
Перевод:
- Профессиональный (двухголосый, закадровый) Екатеринбург-Арт
- Авторский (одноголосый, закадровый) Живов Юрий Викторович
О фильме: Он — агент разведки по прозвищу Наблюдатель. Она — Джоанна Эрис подозреваемая в шантаже большого правительственного чиновника. Получив задание следить за ней, Он вдруг понимает, что выполнить его будет нелегко.
Эрис — не обычная шантажистка. Эрис — смертельно опасная и загадочная красавица, великолепно владеющая искусством перевоплощения и соблазнения. Неотступно следуя за ускользающей Джоанной, постоянно меняющей свой облик, Наблюдатель чувствует, что скоро будет уже не в силах противостоять магическому притяжению этой женщины, но, словно зачарованный взглядом змеи, движется навстречу своей гибели…

Кодек: MPEG4/ISO/AVC
Качество: WEB-DL 720p
Видео: 1280x544, 4155 kbps, 23,976 fps
Аудио #1: AC-3, 6 ch, 448 kbps (Rus) - DVO Екатеринбург-Арт
Аудио #2: AC-3, 6 ch, 448 kbps (Rus) - AVO Живов Юрий Викторович
Аудио #3: AC-3, 6 ch, 448 kbps (Eng)
Субтитры: Английские

Дополнительная информация

WEB-DL и HDTVRip, это разные версии фильма. Где то, чего то добавлено, где то убрано, но большого различия нет.
DVO Екатеринбург-Арт имеет вставку Живова.
Сравниваем WEB-DL, DVD, HDTV :

MediaInfo

Общее
Уникальный идентификатор : 245156397945586550644529192975085253371 (0xB86F67A010B41930888126B696E6B2FB)
Полное имя : Свидетель (Eye of the Beholder) 1999 WEB-DL 720p.mkv
Формат : Matroska
Версия формата : Version 2
Размер файла : 3,98 Гбайт
Продолжительность : 1 ч. 41 м.
Общий поток : 5610 Кбит/сек
Дата кодирования : UTC 2016-10-30 06:19:36
Программа кодирования : mkvmerge v4.0.0 ('The Stars were mine') сборка от Jun 6 2010 16:18:42
Библиотека кодирования : libebml v1.0.0 + libmatroska v1.0.0
Видео
Идентификатор : 1
Формат : AVC
Формат/Информация : Advanced Video Codec
Профиль формата : Main@L3.1
Параметр CABAC формата : Нет
Параметр ReFrames формата : 2 кадра
Идентификатор кодека : V_MPEG4/ISO/AVC
Продолжительность : 1 ч. 41 м.
Битрейт : 4155 Кбит/сек
Ширина : 1280 пикселей
Высота : 544 пикселя
Соотношение сторон : 2,35:1
Режим частоты кадров : Постоянный
Частота кадров : 23,976 кадра/сек
Цветовое пространство : YUV
Субдискретизация насыщенности : 4:2:0
Битовая глубина : 8 бит
Тип развёртки : Прогрессивная
Бит/(Пиксели*Кадры) : 0.249
Размер потока : 2,95 Гбайт (74%)
Язык : English
Default : Нет
Forced : Нет
Цветовой диапазон : Limited
Основные цвета : BT.709
Характеристики трансфера : BT.709
Коэффициенты матрицы : BT.709
Аудио #1
Идентификатор : 2
Формат : AC-3
Формат/Информация : Audio Coding 3
Расширение режима : CM (complete main)
Параметр Endianness формата : Big
Идентификатор кодека : A_AC3
Продолжительность : 1 ч. 41 м.
Вид битрейта : Постоянный
Битрейт : 448 Кбит/сек
Каналы : 6 каналов
Расположение каналов : Front: L C R, Side: L R, LFE
Частота : 48,0 КГц
Частота кадров : 31,250 кадров/сек (1536 spf)
Метод сжатия : С потерями
Размер потока : 325 Мбайт (8%)
Заголовок : DVO Екатеринбург-Арт
Язык : Russian
Default : Нет
Forced : Нет
Аудио #2
Идентификатор : 3
Формат : AC-3
Формат/Информация : Audio Coding 3
Расширение режима : CM (complete main)
Параметр Endianness формата : Big
Идентификатор кодека : A_AC3
Продолжительность : 1 ч. 41 м.
Вид битрейта : Постоянный
Битрейт : 448 Кбит/сек
Каналы : 6 каналов
Расположение каналов : Front: L C R, Side: L R, LFE
Частота : 48,0 КГц
Частота кадров : 31,250 кадров/сек (1536 spf)
Метод сжатия : С потерями
Размер потока : 325 Мбайт (8%)
Заголовок : AVO Живов Юрий Викторович
Язык : Russian
Default : Нет
Forced : Нет
Аудио #3
Идентификатор : 4
Формат : AC-3
Формат/Информация : Audio Coding 3
Расширение режима : CM (complete main)
Параметр Endianness формата : Big
Идентификатор кодека : A_AC3
Продолжительность : 1 ч. 41 м.
Вид битрейта : Постоянный
Битрейт : 448 Кбит/сек
Каналы : 6 каналов
Расположение каналов : Front: L C R, Side: L R, LFE
Частота : 48,0 КГц
Частота кадров : 31,250 кадров/сек (1536 spf)
Метод сжатия : С потерями
Размер потока : 325 Мбайт (8%)
Язык : English
Default : Нет
Forced : Нет
Текст
Идентификатор : 5
Формат : UTF-8
Идентификатор кодека : S_TEXT/UTF8
Идентификатор кодека/Информация : UTF-8 Plain Text
Язык : English
Default : Нет
Forced : Нет

Скриншоты


[Цитировать]



Показать сообщения:    

Текущее время: 28-Сен 08:00

Часовой пояс: UTC + 6


Вы не можете начинать темы
Вы не можете отвечать на сообщения
Вы не можете редактировать свои сообщения
Вы не можете удалять свои сообщения
Вы не можете голосовать в опросах
Вы не можете прикреплять файлы к сообщениям
Вы не можете скачивать файлы

!ВНИМАНИЕ!
Сайт не предоставляет электронные версии произведений, а занимается лишь коллекционированием и каталогизацией ссылок, присылаемых и публикуемых на форуме нашими читателями. Если вы являетесь правообладателем какого-либо представленного материала и не желаете, чтобы ссылка на него находилась в нашем каталоге, свяжитесь с нами, и мы незамедлительно удалим ее. Файлы для обмена на трекере предоставлены пользователями сайта, и администрация не несет ответственности за их содержание. Просьба не заливать файлы, защищенные авторскими правами, а также файлы нелегального содержания!