***Уважаемые пользователи и гости !!! Сайт переехал на новый домен Torrents-club.info. Просьба изменить ваши закладки! ***
 
[ Сегодня идет свободное скачивание без начисления Download ]


Статистика раздачи
Нет
 
   
 
 
 
 
Идём со мной / Blackway (2015) BDRip [H.264/1080p]- Производство: США
Жанр: Триллер
Режиссер: Даниэль Альфредсон
Продюсер: Рик Дагдэйл, Эллен Голдсмит-Вейн, Энтони Хопкинс
Актеры: Джулия Стайлз, Александр Людвиг, Энтони Хопкинс, Рэй Лиотта, Локлин Манро, Хэл Холбрук, Тэйлор Хиксон, Алекс Паунович, Стив Бачич, Крис Готье.
Описание:
Лиллиан возвращается в родной город после учебы и становится жертвой сексуальных домогательств со стороны человека по имени Блэквэй. Когда девушка понимает, что полицейские порядки в городе не действуют, она обращается за помощью к друзьям: бывшему леснику и его приятелю. В процессе поиска они узнают, что Лиллиан — далеко не единственная жертва преступника. Услышав имя Блэквэя, жители городка испытывают страх и отказываются помогать, избегая общения. Джулия и её помощники остаются один на один с сумасшедшим преступником…

Возраст: 16+ (зрителям, достигшим 16 лет)
Рейтинг MPAA: R (лицам до 17 лет обязательно присутствие взрослого)
Дата мировой премьеры: 11 сентября 2015
Дата российской премьеры: 7 июля 2016, «АКМ»
Дата выхода DVD/Blu-ray релиза: 20 сентября 2016, «CD Land»
Продолжительность: 01:26:40
Качество видео: BDRip 1080p
Перевод: Дублированный (iTunes)
Субтитры: Отсутствуют
Видео: AVC/H.264, 1920x800, 25.000 fps, 9322 Kbps
Аудио 1: AC3, 6 ch, 384 Kbps, CBR (русский)
Аудио 2: DTS, 6 ch, 1510 Kbps, CBR (английский)
Дополнительно: Сохранены оригинальные главы (чаптеры)

Тех. инфо

Общее
Уникальный идентификатор : 181545137595159707758952718888907354442 (0x889452594F03E68FB4498C4C0D18B14A)
Полное имя : D:\Фильмы\Мои раздачи\Идём со мной\Go.With.Me.2015.BDRip.1080p.mkv
Формат : Matroska
Версия формата : Version 4 / Version 2
Размер файла : 6,79 Гбайт
Продолжительность : 1 ч. 26 м.
Общий поток : 11,2 Мбит/сек
Дата кодирования : UTC 2016-10-31 21:24:46
Программа кодирования : mkvmerge v8.3.0 ('Over the Horizon') 64bit
Библиотека кодирования : libebml v1.3.1 + libmatroska v1.4.2
DURATION : 01:26:40.000000000
NUMBER_OF_FRAMES : 487500
NUMBER_OF_BYTES : 980850000
_STATISTICS_WRITING_APP : mkvmerge v8.3.0 ('Over the Horizon') 64bit
_STATISTICS_WRITING_DATE_UTC : 2016-10-31 21:24:46
_STATISTICS_TAGS : BPS DURATION NUMBER_OF_FRAMES NUMBER_OF_BYTES
Видео
Идентификатор : 1
Формат : AVC
Формат/Информация : Advanced Video Codec
Профиль формата : High@L4.1
Параметр CABAC формата : Да
Параметр ReFrames формата : 5 кадров
Идентификатор кодека : V_MPEG4/ISO/AVC
Продолжительность : 1 ч. 26 м.
Битрейт : 9322 Кбит/сек
Ширина : 1920 пикселей
Высота : 800 пикселей
Соотношение сторон : 2,40:1
Режим частоты кадров : Постоянный
Частота кадров : 25,000 кадров/сек
Цветовое пространство : YUV
Субдискретизация насыщенности : 4:2:0
Битовая глубина : 8 бит
Тип развёртки : Прогрессивная
Бит/(Пиксели*Кадры) : 0.243
Размер потока : 5,51 Гбайт (81%)
Библиотека кодирования : x264 core 148 r2705 3f5ed56
Настройки программы : cabac=1 / ref=5 / deblock=1:1:1 / analyse=0x3:0x133 / me=umh / subme=8 / psy=1 / psy_rd=1.00:0.00 / mixed_ref=1 / me_range=16 / chroma_me=1 / trellis=1 / 8x8dct=1 / cqm=0 / deadzone=21,11 / fast_pskip=0 / chroma_qp_offset=-2 / threads=25 / lookahead_threads=4 / sliced_threads=0 / nr=0 / decimate=1 / interlaced=0 / bluray_compat=0 / constrained_intra=0 / bframes=3 / b_pyramid=2 / b_adapt=2 / b_bias=0 / direct=3 / weightb=1 / open_gop=0 / weightp=2 / keyint=250 / keyint_min=25 / scenecut=40 / intra_refresh=0 / rc_lookahead=50 / rc=2pass / mbtree=1 / bitrate=9322 / ratetol=1.0 / qcomp=0.60 / qpmin=0 / qpmax=69 / qpstep=4 / cplxblur=20.0 / qblur=0.5 / ip_ratio=1.40 / aq=1:1.00
Язык : English
Default : Да
Forced : Нет
DURATION : 01:26:40.000000000
NUMBER_OF_FRAMES : 130000
NUMBER_OF_BYTES : 6058663770
_STATISTICS_WRITING_APP : mkvmerge v8.3.0 ('Over the Horizon') 64bit
_STATISTICS_WRITING_DATE_UTC : 2016-10-31 21:24:46
_STATISTICS_TAGS : BPS DURATION NUMBER_OF_FRAMES NUMBER_OF_BYTES
Аудио #1
Идентификатор : 2
Формат : AC-3
Формат/Информация : Audio Coding 3
Расширение режима : CM (complete main)
Параметр Endianness формата : Big
Идентификатор кодека : A_AC3
Продолжительность : 1 ч. 26 м.
Вид битрейта : Постоянный
Битрейт : 384 Кбит/сек
Каналы : 6 каналов
Расположение каналов : Front: L C R, Side: L R, LFE
Частота : 48,0 КГц
Битовая глубина : 16 бит
Метод сжатия : С потерями
Размер потока : 238 Мбайт (3%)
Заголовок : iTunes
Язык : Russian
Default : Да
Forced : Нет
Аудио #2
Идентификатор : 3
Формат : DTS
Формат/Информация : Digital Theater Systems
Идентификатор кодека : A_DTS
Продолжительность : 1 ч. 26 м.
Вид битрейта : Постоянный
Битрейт : 1510 Кбит/сек
Каналы : 6 каналов
Расположение каналов : Front: L C R, Side: L R, LFE
Частота : 48,0 КГц
Битовая глубина : 24 бит
Метод сжатия : С потерями
Размер потока : 936 Мбайт (13%)
Язык : English
Default : Нет
Forced : Нет
Меню
00:00:00.000 : en:00:00:00.000
00:05:39.480 : en:00:05:39.480
00:12:59.120 : en:00:12:59.120
00:19:23.320 : en:00:19:23.320
00:23:57.440 : en:00:23:57.440
00:33:34.800 : en:00:33:34.800
00:42:30.960 : en:00:42:30.960
00:51:07.880 : en:00:51:07.880
00:58:02.640 : en:00:58:02.640
01:05:44.680 : en:01:05:44.680
01:10:55.280 : en:01:10:55.280
01:19:52.240 : en:01:19:52.240
Скриншоты:

[Цитировать]



Показать сообщения:    

Текущее время: 29-Сен 20:56

Часовой пояс: UTC + 6


Вы не можете начинать темы
Вы не можете отвечать на сообщения
Вы не можете редактировать свои сообщения
Вы не можете удалять свои сообщения
Вы не можете голосовать в опросах
Вы не можете прикреплять файлы к сообщениям
Вы не можете скачивать файлы

!ВНИМАНИЕ!
Сайт не предоставляет электронные версии произведений, а занимается лишь коллекционированием и каталогизацией ссылок, присылаемых и публикуемых на форуме нашими читателями. Если вы являетесь правообладателем какого-либо представленного материала и не желаете, чтобы ссылка на него находилась в нашем каталоге, свяжитесь с нами, и мы незамедлительно удалим ее. Файлы для обмена на трекере предоставлены пользователями сайта, и администрация не несет ответственности за их содержание. Просьба не заливать файлы, защищенные авторскими правами, а также файлы нелегального содержания!