***Уважаемые пользователи и гости !!! Сайт переехал на новый домен Torrents-club.info. Просьба изменить ваши закладки! ***
 
[ Сегодня идет свободное скачивание без начисления Download ]


Статистика раздачи
Нет
 
   
 
 
 
 
Флирт со зверем / Someone Like You.. (2001) WEBRip 1080p Информация о фильме
Название: Флирт со зверем
Оригинальное название: Someone Like You...
Год выхода: 2001
Жанр: Мелодрама, комедия, экранизация
Режиссер: Тони Голдуин / Tony Goldwyn
В ролях: Эшли Джадд, Грег Киннер, Хью Джекман, Мариса Томей, Эллен Баркин, Катрин Дент, Питер Фридман, Лаура Риган, Сью Джин Сонг, Кейт Реддин
О фильме: Джейн — молодая и чертовски сексапильная девушка. Она живет в Нью-Йорке. Работает в популярном телешоу и полна решимости добиться успеха как на работе, так и в личной жизни. За ней ухаживает Рей, новый исполнительный продюсер. Их роман развивается быстро и красиво.Вскоре влюбленная парочка начинает подыскивать гнездышко для совместного проживания. Однако неожиданно и без объяснений Рей прекращает этот бурный роман, и Джейн остается одна — покинутая и несчастная. Размышляя о случившемся, Джейн приходит к выводу, что все мужики — животные...

Страна: США
Студия: Fox 2000 Pictures, Lynda Obst Productions
Продолжительность: 01:37:15
Перевод #1: Профессиональный (многоголосый, закадровый)
Перевод #2: Профессиональный (полное дублирование)
Cубтитры : Русский, Английский
Контейнер: MKV
Качество: WEBRip 1080p
Видео: MPEG-4 AVC, High@L4, 12.3 Mb/s, 1 920 x 1 040, 23.976 fps
Аудио 1 : Русский (AC-3, 6ch, 384 kb/s, 48.0 KHz) MVO
Аудио 2 : Русский (AC-3, 2ch, 384 kb/s, 48.0 KHz) Dub
Аудио 3 : Английский (E-AC-3, 6ch, 640 kb/s, 48.0 KHz)
Субтитры : Russian SRT, English SRT
Навигация по главам: есть
Глобальные тэги: есть

MI

Общее
Уникальный идентификатор : 219726723953503226685042723452210570935 (0xA54DD3E5BF50D15E83B347680F6AE6B7)
Полное имя : E:Флирт со зверем Someone Like You.. (2001).mkv
Формат : Matroska
Версия формата : Version 4 / Version 2
Размер файла : 9,31 Гбайт
Продолжительность : 1 ч. 37 м.
Режим общего битрейта : Переменный
Общий поток : 13,7 Мбит/сек
Название фильма : Флирт со
Тип содержимого : Movie
Описание : «The story about the one that got away and the one she never saw coming»
Дата выпуска : 2001-03-30
Дата кодирования : UTC 2017-02-04 11:33:52
Программа кодирования : mkvmerge v9.8.0 ('Kuglblids') 64bit
Библиотека кодирования : libebml v1.3.4 + libmatroska v1.4.5
Обложка : Yes
Attachments : cover.jpg
ACTOR : Эшли Джадд, Грег Киннер, Хью Джекман, Мариса Томей, Эллен Баркин, Катрин Дент, Питер Фридман, Лаура Риган, Сью Джин Сонг, Кейт Реддин
ARTIST : Эшли Джадд, Грег Киннер, Хью Джекман, Мариса Томей, Эллен Баркин, Катрин Дент, Питер Фридман, Лаура Риган, Сью Джин Сонг, Кейт Реддин
DIRECTOR : Tony Goldwyn / Тони Голдуин
GENRE : комедия, мелодрама
LAW_RATING : PG-13
PRODUCER : Lynda Obst / Линда Обст
PRODUCTION_STUDIO : Lynda Obst Productions
SCREENPLAY_BY : Elizabeth Chandler /Элизабет Чэндлер
SUMMARY : «The story about the one that got away and the one she never saw coming»
SYNOPSIS : Джейн — молодая и чертовски сексапильная девушка. Она живет в Нью-Йорке. Работает в популярном телешоу и полна решимости добиться успеха как на работе, так и в личной жизни. За ней ухаживает Рей, новый исполнительный продюсер. Их роман развивается быстро и красиво. Вскоре влюбленная парочка начинает подыскивать гнездышко для совместного проживания. Однако неожиданно и без объяснений Рей прекращает этот бурный роман, и Джейн остается одна — покинутая и несчастная. Размышляя о случившемся. Джейн приходит к выводу, что все мужики — животные. Осознав свое превосходство, она решает написать разоблачающую статью в женский журнал, где сравнивает мужчин с животными во время брачного периода. В качестве подопытного кролика она выбирает своего коллегу Эдди — настоящего бабника и типичного образца мужчины-самца. Но кажется она переоценила свои силы, и Эдди доказывает ей, что женщины, хотя они и более утонченные, не сильно отличаются от мужчин.
Видео
Идентификатор : 1
Формат : AVC
Формат/Информация : Advanced Video Codec
Профиль формата : High@L4
Параметр CABAC формата : Да
Параметр ReFrames формата : 4 кадра
Идентификатор кодека : V_MPEG4/ISO/AVC
Продолжительность : 1 ч. 37 м.
Вид битрейта : Переменный
Битрейт : 12,3 Мбит/сек
Максимальный битрейт : 15,0 Мбит/сек
Ширина : 1920 пикселей
Высота : 1040 пикселей
Соотношение сторон : 1,85:1
Режим частоты кадров : Постоянный
Частота кадров : 23,976 (24000/1001) кадра/сек
Цветовое пространство : YUV
Субдискретизация насыщенности : 4:2:0
Битовая глубина : 8 бит
Тип развёртки : Прогрессивная
Бит/(Пиксели*Кадры) : 0.257
Размер потока : 8,35 Гбайт (90%)
Библиотека кодирования : x264 core 148 r2623 d5b2374
Настройки программы : cabac=1 / ref=4 / deblock=1:-1:-1 / analyse=0x3:0x133 / me=umh / subme=9 / psy=1 / psy_rd=1.00:0.15 / mixed_ref=1 / me_range=24 / chroma_me=1 / trellis=2 / 8x8dct=1 / cqm=0 / deadzone=21,11 / fast_pskip=1 / chroma_qp_offset=-3 / threads=32 / lookahead_threads=5 / sliced_threads=0 / nr=150 / decimate=1 / interlaced=0 / bluray_compat=0 / constrained_intra=0 / bframes=8 / b_pyramid=2 / b_adapt=2 / b_bias=0 / direct=3 / weightb=1 / open_gop=0 / weightp=2 / keyint=120 / keyint_min=61 / scenecut=0 / intra_refresh=0 / rc_lookahead=120 / rc=crf / mbtree=1 / crf=18.0 / qcomp=0.60 / qpmin=0 / qpmax=69 / qpstep=4 / vbv_maxrate=15000 / vbv_bufsize=31250 / crf_max=0.0 / nal_hrd=vbr / filler=0 / ip_ratio=1.40 / aq=3:1.00
Default : Да
Forced : Нет
Цветовой диапазон : Limited
Основные цвета : BT.709
Характеристики трансфера : BT.709
Коэффициенты матрицы : BT.709
Аудио #1
Идентификатор : 2
Формат : AC-3
Формат/Информация : Audio Coding 3
Расширение режима : CM (complete main)
Параметр Endianness формата : Big
Идентификатор кодека : A_AC3
Продолжительность : 1 ч. 37 м.
Вид битрейта : Постоянный
Битрейт : 384 Кбит/сек
Каналы : 6 каналов
Расположение каналов : Front: L C R, Side: L R, LFE
Частота : 48,0 КГц
Частота кадров : 31,250 кадров/сек (1536 spf)
Битовая глубина : 16 бит
Метод сжатия : С потерями
Размер потока : 267 Мбайт (3%)
Заголовок : MVO
Язык : Russian
Default : Да
Forced : Нет
Аудио #2
Идентификатор : 3
Формат : AC-3
Формат/Информация : Audio Coding 3
Расширение режима : CM (complete main)
Параметр Endianness формата : Big
Идентификатор кодека : A_AC3
Продолжительность : 1 ч. 37 м.
Вид битрейта : Постоянный
Битрейт : 384 Кбит/сек
Каналы : 2 канала
Расположение каналов : Front: L R
Частота : 48,0 КГц
Частота кадров : 31,250 кадров/сек (1536 spf)
Битовая глубина : 16 бит
Метод сжатия : С потерями
Размер потока : 267 Мбайт (3%)
Заголовок : Dub
Язык : Russian
Default : Нет
Forced : Нет
Аудио #3
Идентификатор : 4
Формат : E-AC-3
Формат/Информация : Enhanced Audio Coding 3
Параметр Endianness формата : Big
Идентификатор кодека : A_EAC3
Продолжительность : 1 ч. 37 м.
Вид битрейта : Постоянный
Битрейт : 640 Кбит/сек
Каналы : 6 каналов
Расположение каналов : Front: L C R, Side: L R, LFE
Частота : 48,0 КГц
Частота кадров : 187,500 кадров/сек (256 spf)
Метод сжатия : С потерями
Размер потока : 445 Мбайт (5%)
Язык : English
Default : Нет
Forced : Нет
Текст #1
Идентификатор : 5
Формат : UTF-8
Идентификатор кодека : S_TEXT/UTF8
Идентификатор кодека/Информация : UTF-8 Plain Text
Продолжительность : 1 ч. 33 м.
Битрейт : 92 бит/сек
Count of elements : 1007
Размер потока : 63,0 Кбайт (0%)
Заголовок : SRT
Язык : Russian
Default : Нет
Forced : Нет
Текст #2
Идентификатор : 6
Формат : UTF-8
Идентификатор кодека : S_TEXT/UTF8
Идентификатор кодека/Информация : UTF-8 Plain Text
Продолжительность : 1 ч. 36 м.
Битрейт : 72 бит/сек
Count of elements : 1402
Размер потока : 51,2 Кбайт (0%)
Заголовок : SRT
Язык : English
Default : Да
Forced : Нет
Меню
00:00:00.000 : en:Chapter 01
00:05:03.970 : en:Chapter 02
00:11:15.967 : en:Chapter 03
00:18:58.137 : en:Chapter 04
00:25:18.725 : en:Chapter 05
00:30:43.925 : en:Chapter 06
00:36:07.082 : en:Chapter 07
00:41:00.500 : en:Chapter 08
00:45:18.174 : en:Chapter 09
00:52:40.115 : en:Chapter 10
01:00:03.433 : en:Chapter 11
01:05:33.263 : en:Chapter 12
01:12:44.902 : en:Chapter 13
01:21:18.957 : en:Chapter 14
01:29:52.470 : en:Chapter 15
01:33:15.006 : en:Chapter 16

Скриншоты

[Цитировать]

Топик был перенесен из форума Мелодрама в форум Зарубежное кино (HD Video)
Scorpio



Показать сообщения:    

Текущее время: 06-Май 12:52

Часовой пояс: UTC + 6


Вы не можете начинать темы
Вы не можете отвечать на сообщения
Вы не можете редактировать свои сообщения
Вы не можете удалять свои сообщения
Вы не можете голосовать в опросах
Вы не можете прикреплять файлы к сообщениям
Вы не можете скачивать файлы

!ВНИМАНИЕ!
Сайт не предоставляет электронные версии произведений, а занимается лишь коллекционированием и каталогизацией ссылок, присылаемых и публикуемых на форуме нашими читателями. Если вы являетесь правообладателем какого-либо представленного материала и не желаете, чтобы ссылка на него находилась в нашем каталоге, свяжитесь с нами, и мы незамедлительно удалим ее. Файлы для обмена на трекере предоставлены пользователями сайта, и администрация не несет ответственности за их содержание. Просьба не заливать файлы, защищенные авторскими правами, а также файлы нелегального содержания!