***Уважаемые пользователи и гости !!! Сайт переехал на новый домен Torrents-club.info. Просьба изменить ваши закладки! ***
 
[ Сегодня идет свободное скачивание без начисления Download ]


Статистика раздачи
Нет
 
   
 
 
 
 
Спасительный рассвет
Rescue Dawn
- Информация:
Производство: США, Люксембург / Bruin Grip Services, Gibraltar Films, Metro-Goldwyn-Mayer (MGM), Top Gun Productions, Thema Production
Жанр: Драма, Приключения, Военный
Режиссер: Вернер Херцог
Продюсер: Элтон Брэнд
Актеры: Кристиан Бэйл, Зэк Гренье, Маршалл Белл, Тоби Хасс, Пэт Хили, ДжиКью, Джеймс Оливер, Брэдли Хансен Карр, Франсуа Чау, Стив Зан, Джереми Дэвис, Гален Юэнь, Лэк Чхайянь Чхун-суттиват, Крэйг Геллис, Эммануель О., Мистер Ричард Мэннинг, Ивэн Джонс, Бонни З. Хатчинсон, Стефани Путнэм, Кэтерин Робертс, Энди Лофтус, Колин Кросби, Крис Таллман, Крис Батлер
Описание:
Фильм поставлен по реальным событиям и рассказывает о жизни немца Дитера Денглера, который мечтал стать летчиком. Начало войны во Вьетнаме, группа американских бомбардировщиков отправляется на секретную миссию. Самолет Дитера Денглера сбивают. Он оказывается в плену в небольшом лагере, затерянном где-то в джунглях Лаоса. Однако Дитер не собирается сидеть на месте и ждать у моря погоды - он решает организовать побег.

Возраст: 16+ (зрителям, достигшим 16 лет)
Рейтинг MPAA: PG-13 (детям до 13 лет просмотр нежелателен)
Продолжительность: 02:05:23
Перевод: Многоголосый закадровый
Файл:
Качество видео: BDRip
Видео: HEVC/H.265, 10 бит, 1920x1040, ~8095 Kbps
Аудио 1: DTS, 6 ch, 1510 Kbps (Русский)
Аудио 2: DTS, 6 ch, 1509 Kbps (Английский)
Субтитры: Английские

Mediainfo:

Общее
Уникальный идентификатор : 252610853205730914384157745491975390476 (0xBE0B14A541A373D4A1C4341E7D5CC50C)
Полное имя : K:\Movies\Фильмы\Иностранные\Спасительный рассвет (Rescue Dawn).mkv
Формат : Matroska
Версия формата : Version 4 / Version 2
Размер файла : 9,74 Гбайт
Продолжительность : 2 ч. 5 м.
Общий поток : 11,1 Мбит/сек
Название фильма : Спасительный рассвет / Rescue Dawn
Дата кодирования : UTC 2017-10-04 09:01:32
Программа кодирования : mkvmerge v15.0.0 ('Duel with the Devil') 64-bit
Библиотека кодирования : libebml v1.3.5 + libmatroska v1.4.5
Авторское право : Encoded by Goor80
Обложка : Yes
Attachments : cover.jpg
Released by : Buba5473 for NNM-Club
Видео
Идентификатор : 1
Формат : HEVC
Формат/Информация : High Efficiency Video Coding
Профиль формата : Main 10@L4@Main
Идентификатор кодека : V_MPEGH/ISO/HEVC
Продолжительность : 2 ч. 5 м.
Битрейт : 8095 Кбит/сек
Ширина : 1920 пикселей
Высота : 1040 пикселей
Соотношение сторон : 1,85:1
Режим частоты кадров : Постоянный
Частота кадров : 23,976 (24000/1001) кадра/сек
Цветовое пространство : YUV
Субдискретизация насыщенности : 4:2:0
Битовая глубина : 10 бит
Бит/(Пиксели*Кадры) : 0.169
Размер потока : 7,09 Гбайт (73%)
Default : Да
Forced : Нет
Аудио #1
Идентификатор : 2
Формат : DTS
Формат/Информация : Digital Theater Systems
Режим : 16
Параметр Endianness формата : Big
Идентификатор кодека : A_DTS
Продолжительность : 2 ч. 5 м.
Вид битрейта : Постоянный
Битрейт : 1510 Кбит/сек
Каналы : 6 каналов
Расположение каналов : Front: L C R, Side: L R, LFE
Частота : 48,0 КГц
Частота кадров : 93,750 кадра/сек (512 spf)
Битовая глубина : 24 бит
Метод сжатия : С потерями
Размер потока : 1,32 Гбайт (14%)
Заголовок : Перевод: Профессиональный (многоголосый, закадровый)
Язык : Russian
Default : Да
Forced : Нет
Аудио #2
Идентификатор : 3
Формат : DTS
Формат/Информация : Digital Theater Systems
Режим : 16
Параметр Endianness формата : Big
Идентификатор кодека : A_DTS
Продолжительность : 2 ч. 5 м.
Вид битрейта : Постоянный
Битрейт : 1509 Кбит/сек
Каналы : 6 каналов
Расположение каналов : Front: L C R, Side: L R, LFE
Частота : 48,0 КГц
Частота кадров : 93,750 кадра/сек (512 spf)
Битовая глубина : 24 бит
Метод сжатия : С потерями
Размер потока : 1,32 Гбайт (14%)
Язык : English
Default : Нет
Forced : Нет
Текст
Идентификатор : 4
Формат : UTF-8
Идентификатор кодека : S_TEXT/UTF8
Идентификатор кодека/Информация : UTF-8 Plain Text
Продолжительность : 1 ч. 57 м.
Битрейт : 42 бит/сек
ElementCount : 1190
Размер потока : 36,3 Кбайт (0%)
Язык : English
Default : Нет
Forced : Нет
XMP
Xmp.video.FileName : K:\Movies\Фильмы\Иностранные\Спасительный рассвет (Rescue Dawn).mkv
Xmp.video.FileSize : -9.53674e-007
Xmp.video.MimeType : video/matroska
Xmp.video.EBMLVersion : 1
Xmp.video.EBMLReadVersion : 1
Xmp.video.DocType : matroska
Xmp.video.DocTypeVersion : 4
Xmp.video.DocTypeReadVersion : 2
Xmp.video.TimecodeScale : 0.001
Xmp.video.MuxingApp : libebml v1.3.5 + libmatroska v1.4.5
Xmp.video.WritingApp : mkvmerge v15.0.0 ('Duel with the Devil') 64-bit
Xmp.video.Duration : 7522515
Xmp.video.DateUTC : 528800492
Xmp.video.Title : Спасительный рассвет / Rescue Dawn
Xmp.video.TotalStream : 4
Xmp.video.TrackLacing : No
Xmp.video.Codec : V_MPEGH/ISO/HEVC
Xmp.video.FrameRate : 23.976
Xmp.video.TrackLang : und
Xmp.video.Width : 1920
Xmp.video.Height : 1040
Xmp.audio.Compressor : A_DTS
Xmp.audio.DefaultDuration : 10666
Xmp.audio.TrackLang : rus
Xmp.video.TrackName : Перевод: Профессиональный (многоголосый, закадровый)
Xmp.audio.SampleRate : 48000
Xmp.audio.BitsPerSample : 24
Xmp.audio.DefaultOn : No
Xmp.video.SubTDefaultOn : No
Xmp.video.SubTTrackLacing : No
Xmp.video.SubTCodec : S_TEXT/UTF8
Xmp.video.AttachFileName : cover.jpg
Xmp.video.AttachFileMIME : image/jpeg
Xmp.video.AttachFileUID : 5046438319094414503
Xmp.video.AspectRatio : 1.8

Внимание! HEVC/x265:

H.265/HEVC (High Efficiency Video Coding) - это новый стандарт кодирования видео.
*Рипы в фомате HEVC, в настоящее время не поддерживается большинством аппаратных проигрывателей.
*Для корректного воспроизведения может потребоваться обновление ПО.
*Стандарт H.265/HEVC является логическим продолжением стандарта H.264/AVC (Advanced Video Coding), и характеризуется более эффективными алгоритмами сжатия, а также поддержкой высокого разрешения вплоть до 8K UHD (8192x4320). Первая версия стандарта H.265 была опубликована в начале 2013 года.
Любителям решения из коробки - установить последнюю версию на выбор:
Media Player Classic - Black Edition (MPC-BE)
VLC media player
Daum Pot Player
GOM Media Player
Любителям WMP и других плееров, использующих по умолчанию для воспроизведения системные кодеки+сплитеры - установить K-Lite Codec Pack версии 10.1.0 и выше.
Любимые плееры, не использующии по умолчанию для воспроизведения системные кодеки+сплитеры, нужно перенастроить на использование оных.

Скриншоты

Скриншоты:

Дополнительная информация

От: Goor80

[Цитировать]



Показать сообщения:    

Текущее время: 06-Июн 11:51

Часовой пояс: UTC + 6


Вы не можете начинать темы
Вы не можете отвечать на сообщения
Вы не можете редактировать свои сообщения
Вы не можете удалять свои сообщения
Вы не можете голосовать в опросах
Вы не можете прикреплять файлы к сообщениям
Вы не можете скачивать файлы

!ВНИМАНИЕ!
Сайт не предоставляет электронные версии произведений, а занимается лишь коллекционированием и каталогизацией ссылок, присылаемых и публикуемых на форуме нашими читателями. Если вы являетесь правообладателем какого-либо представленного материала и не желаете, чтобы ссылка на него находилась в нашем каталоге, свяжитесь с нами, и мы незамедлительно удалим ее. Файлы для обмена на трекере предоставлены пользователями сайта, и администрация не несет ответственности за их содержание. Просьба не заливать файлы, защищенные авторскими правами, а также файлы нелегального содержания!