***Уважаемые пользователи и гости !!! Сайт переехал на новый домен Torrents-club.info. Просьба изменить ваши закладки! ***
 
[ Сегодня идет свободное скачивание без начисления Download ]


Статистика раздачи
Скачал: [ 1 ]
 
   
 
 
 
 
Звёздные войны: Эпизод 1 – Скрытая угроза / Star Wars: Episode I - The Phantom Menace Информация о фильме
Название: Звёздные войны: Эпизод 1 – Скрытая угроза
Оригинальное название: Star Wars: Episode I - The Phantom Menace
Год выхода: 1999
Жанр: фантастика, приключения
Режиссер: Джордж Лукас
В ролях: Лиам Нисон, Юэн МакГрегор, Натали Портман, Джейк Ллойд, Иэн МакДайармид, Пернилла Аугуст, Оливер Форд Дэвис, Хью Куарши, Ахмед Бест, Энтони Дэниелс
О фильме:
Мирная и процветающая планета Набу. Торговая федерация, не желая платить налоги, вступает в прямой конфликт с королевой Амидалой, правящей на планете, что приводит к войне. На стороне королевы и республики в ней участвуют два рыцаря-джедая: учитель и ученик, Квай-Гон-Джин и Оби-Ван Кеноби...

Страна: США
Продолжительность: 02:16:10
Перевод: Дубляж (Нева-фильм), оригинал
Файл
Кодек: HEVC x265 10bit
Качество: BDRip-HEVC 1080p
Видео: 1920x816, 23.976 кадр/сек, 5378 Кбит/сек, 10bit
Звук:
Аудио1: Русская, AC3 448 Кбит/сек, 6 канала(ов),16bit 48,0 КГц
Аудио2: English, AC3 448 Кбит/сек, 6 канала(ов),16bit 48,0 КГц
Субтитры: Русские форсированные, полные, English

Mediainfo

General
Unique ID : 213372337861508848760924782884637723243 (0xA0860479834A77F981724A86AC114A6B)
Format : Matroska
Format version : Version 4 / Version 2
File size : 5.97 GiB
Duration : 2 h 16 min
Overall bit rate : 6 276 kb/s
Encoded date : UTC 2017-09-22 15:07:40
Writing application : mkvmerge v13.0.0 ('The Juggler') 64bit
Writing library : libebml v1.3.4 + libmatroska v1.4.5
Cover : Yes
Attachments : cover1.jpg
Video
ID : 1
Format : HEVC
Format/Info : High Efficiency Video Coding
Format profile : Main 10@L4.1@High
Codec ID : V_MPEGH/ISO/HEVC
Duration : 2 h 16 min
Bit rate : 5 378 kb/s
Width : 1 920 pixels
Height : 816 pixels
Display aspect ratio : 2.35:1
Frame rate mode : Constant
Frame rate : 23.976 (24000/1001) FPS
Color space : YUV
Chroma subsampling : 4:2:0
Bit depth : 10 bits
Bits/(Pixel*Frame) : 0.143
Stream size : 5.12 GiB (86%)
Writing library : x265 2.5+16-bac53338585c:[Windows][GCC 7.1.0][64 bit] 10bit
Encoding settings : cpuid=1050111 / frame-threads=5 / numa-pools=4 / wpp / no-pmode / no-pme / no-psnr / no-ssim / log-level=3 / input-csp=1 / input-res=1920x816 / interlace=0 / total-frames=0 / level-idc=41 / high-tier=1 / uhd-bd=0 / ref=4 / no-allow-non-conformance / no-repeat-headers / annexb / no-aud / no-hrd / info / hash=0 / no-temporal-layers / open-gop / min-keyint=23 / keyint=250 / bframes=10 / b-adapt=2 / b-pyramid / bframe-bias=0 / rc-lookahead=40 / lookahead-slices=5 / scenecut=40 / no-intra-refresh / ctu=64 / min-cu-size=8 / no-rect / no-amp / max-tu-size=32 / tu-inter-depth=2 / tu-intra-depth=2 / limit-tu=0 / rdoq-level=0 / dynamic-rd=0.00 / no-ssim-rd / signhide / no-tskip / nr-intra=0 / nr-inter=0 / no-constrained-intra / strong-intra-smoothing / max-merge=3 / limit-refs=3 / no-limit-modes / me=2 / subme=6 / merange=32 / temporal-mvp / weightp / weightb / no-analyze-src-pics / deblock=-3:-3 / no-sao / no-sao-non-deblock / rd=3 / no-early-skip / rskip / no-fast-intra / no-tskip-fast / no-cu-lossless / no-b-intra / no-splitrd-skip / rdpenalty=0 / psy-rd=2.00 / psy-rdoq=0.00 / no-rd-refine / analysis-reuse-mode=0 / no-lossless / cbqpoffs=0 / crqpoffs=0 / rc=crf / crf=18.0 / qcomp=0.60 / qpstep=4 / stats-write=0 / stats-read=0 / vbv-maxrate=50000 / vbv-bufsize=35714 / vbv-init=0.9 / crf-max=30.0 / crf-min=0.0 / ipratio=1.40 / pbratio=1.30 / aq-mode=3 / aq-strength=1.00 / cutree / zone-count=0 / no-strict-cbr / qg-size=32 / no-rc-grain / qpmax=69 / qpmin=0 / no-const-vbv / sar=1 / overscan=0 / videoformat=5 / range=0 / colorprim=1 / transfer=1 / colormatrix=1 / chromaloc=0 / display-window=0 / max-cll=0,0 / min-luma=0 / max-luma=1023 / log2-max-poc-lsb=8 / vui-timing-info / vui-hrd-info / slices=1 / opt-qp-pps / opt-ref-list-length-pps / no-multi-pass-opt-rps / scenecut-bias=0.05 / no-opt-cu-delta-qp / no-aq-motion / no-hdr / no-hdr-opt / no-dhdr10-opt / analysis-reuse-level=5 / scale-factor=0 / refine-intra=0 / refine-inter=0 / refine-mv=0 / no-limit-sao / ctu-info=0
Default : Yes
Forced : No
Color range : Limited
Color primaries : BT.709
Transfer characteristics : BT.709
Matrix coefficients : BT.709
Audio #1
ID : 2
Format : AC-3
Format/Info : Audio Coding 3
Format settings, Endianness : Big
Codec ID : A_AC3
Duration : 2 h 16 min
Bit rate mode : Constant
Bit rate : 448 kb/s
Channel(s) : 6 channels
Channel positions : Front: L C R, Side: L R, LFE
Sampling rate : 48.0 kHz
Frame rate : 31.250 FPS (1536 SPF)
Bit depth : 16 bits
Compression mode : Lossy
Stream size : 436 MiB (7%)
Language : Russian
Service kind : Complete Main
Default : Yes
Forced : No
Audio #2
ID : 3
Format : AC-3
Format/Info : Audio Coding 3
Format settings, Endianness : Big
Codec ID : A_AC3
Duration : 2 h 16 min
Bit rate mode : Constant
Bit rate : 448 kb/s
Channel(s) : 6 channels
Channel positions : Front: L C R, Side: L R, LFE
Sampling rate : 48.0 kHz
Frame rate : 31.250 FPS (1536 SPF)
Bit depth : 16 bits
Compression mode : Lossy
Delay relative to video : 2 s 665 ms
Stream size : 436 MiB (7%)
Language : English
Service kind : Complete Main
Default : No
Forced : No
Text #1
ID : 4
Format : UTF-8
Codec ID : S_TEXT/UTF8
Codec ID/Info : UTF-8 Plain Text
Duration : 50 min 22 s
Bit rate : 4 b/s
Count of elements : 32
Stream size : 1.54 KiB (0%)
Title : rus forced
Language : Russian
Default : Yes
Forced : No
Text #2
ID : 5
Format : UTF-8
Codec ID : S_TEXT/UTF8
Codec ID/Info : UTF-8 Plain Text
Duration : 2 h 9 min
Bit rate : 87 b/s
Count of elements : 1459
Stream size : 83.1 KiB (0%)
Title : rus full
Language : Russian
Default : No
Forced : No
Text #3
ID : 6
Format : UTF-8
Codec ID : S_TEXT/UTF8
Codec ID/Info : UTF-8 Plain Text
Duration : 2 h 7 min
Bit rate : 53 b/s
Count of elements : 1501
Stream size : 49.9 KiB (0%)
Language : English
Default : No
Forced : No
Menu
00:00:00.000 : :Начало
00:00:21.104 : :Скрытая угроза
00:01:52.737 : :Короткие переговоры
00:07:55.349 : :Королева Амидала
00:09:55.970 : :Посадка на Набу
00:11:18.761 : :Джа Джа Бинкс
00:13:24.178 : :Ото Гунга
00:14:49.805 : :Босс Насс
00:17:14.241 : :Ядро планеты
00:20:40.948 : :Вторжение в Тид
00:22:25.302 : :Неожиданное спасение
00:25:12.886 : :Прорыв блокады
00:29:32.812 : :Татуин
00:31:41.482 : :Лавка Уотто
00:35:51.732 : :Судьбоносные встречи
00:40:48.571 : :Разговор за обедом
00:44:16.320 : :Подготовка к гонке
00:52:04.579 : :Пари с Уотто
00:55:03.842 : :Представление гонщиков
00:58:27.921 : :"Начинайте гонки"
01:02:27.702 : :Второй круг
01:05:33.012 : :Последний этап
01:10:06.911 : :Получение приза
01:11:17.939 : :Выбор нового пути
01:16:20.951 : :Нападение Дарта Мола
01:18:08.100 : :Волнения королевы
01:20:26.363 : :Прибытие на Корусант
01:24:18.178 : :Совет джедаев
01:26:44.782 : :Заседание сената
01:29:54.722 : :Проверка Энакина
01:31:02.415 : :Выдвижение Палпатина
01:33:08.541 : :Будущее Энакина
01:37:21.418 : :Ход королевы
01:39:06.315 : :Просьба к гунганам
01:42:33.730 : :План битвы
01:44:41.566 : :"Уничтожьте всех"
01:46:19.247 : :Захват дворца
01:48:07.731 : :Столкновение продолжается
01:50:24.951 : :Дуэль судеб
01:56:47.667 : :Гунганы отступают
01:59:13.062 : :Квай-Гон против Дарта Мола
02:00:31.390 : :Пленение вице-короля
02:01:21.315 : :Оби-Ван против Дарта Мола
02:02:23.377 : :Станция управления уничтожена
02:03:56.971 : :Ситх повержен
02:05:15.132 : :Прибытие канцлера Палпатина
02:06:25.995 : :Новый рыцарь, новый ученик
02:07:23.177 : :Прощание с джедаем
02:08:28.992 : :Праздник на Набу
02:09:53.535 : :Финальные титры

Скриншоты

[Цитировать]



Показать сообщения:    

Текущее время: 31-Май 18:04

Часовой пояс: UTC + 6


Вы не можете начинать темы
Вы не можете отвечать на сообщения
Вы не можете редактировать свои сообщения
Вы не можете удалять свои сообщения
Вы не можете голосовать в опросах
Вы не можете прикреплять файлы к сообщениям
Вы не можете скачивать файлы

!ВНИМАНИЕ!
Сайт не предоставляет электронные версии произведений, а занимается лишь коллекционированием и каталогизацией ссылок, присылаемых и публикуемых на форуме нашими читателями. Если вы являетесь правообладателем какого-либо представленного материала и не желаете, чтобы ссылка на него находилась в нашем каталоге, свяжитесь с нами, и мы незамедлительно удалим ее. Файлы для обмена на трекере предоставлены пользователями сайта, и администрация не несет ответственности за их содержание. Просьба не заливать файлы, защищенные авторскими правами, а также файлы нелегального содержания!